<?xml version="1.0" standalone="no"?>
<!--
  ~ Copyright (c) 2016 Mathew Berry (contact@mathewberry.com), Marc Newton (hello@marcnewton.co.uk)
  -->

<!DOCTYPE svg PUBLIC "-//W3C//DTD SVG 1.1//EN" "http://www.w3.org/Graphics/SVG/1.1/DTD/svg11.dtd" >
<svg xmlns="http://www.w3.org/2000/svg">
<metadata></metadata>
<defs>
<font id="glyphiconsregular" horiz-adv-x="2400" >
<font-face units-per-em="2400" ascent="1920" descent="-480" />
<missing-glyph horiz-adv-x="500" />
<glyph horiz-adv-x="0" />
<glyph horiz-adv-x="800" />
<glyph unicode=" " />
<glyph unicode="&#xa0;" />
<glyph unicode="&#x2000;" horiz-adv-x="1656" />
<glyph unicode="&#x2001;" horiz-adv-x="3313" />
<glyph unicode="&#x2002;" horiz-adv-x="1656" />
<glyph unicode="&#x2003;" horiz-adv-x="3313" />
<glyph unicode="&#x2004;" horiz-adv-x="1104" />
<glyph unicode="&#x2005;" horiz-adv-x="828" />
<glyph unicode="&#x2006;" horiz-adv-x="552" />
<glyph unicode="&#x2007;" horiz-adv-x="552" />
<glyph unicode="&#x2008;" horiz-adv-x="414" />
<glyph unicode="&#x2009;" horiz-adv-x="662" />
<glyph unicode="&#x200a;" horiz-adv-x="184" />
<glyph unicode="&#x202f;" horiz-adv-x="662" />
<glyph unicode="&#x205f;" horiz-adv-x="828" />
<glyph unicode="&#x25fc;" horiz-adv-x="500" d="M0 0z" />
<glyph unicode="&#xe001;" d="M392 2v50l700 233v834l-1034 1281h2284l-1050 -1288v-827l700 -233v-50h-1600zM1092 1301l-404 899h-300z" />
<glyph unicode="&#xe002;" d="M1 -22v142l381 383q-3 31 -18 112t-25.5 168.5t-10.5 172.5q0 394 252 718q71 91 149.5 162t157.5 122t180.5 94t197.5 73t231 65t258.5 64t302.5 75t342 93q0 -290 -28.5 -540t-78 -440t-122 -347t-154 -267t-181.5 -194.5t-198 -135.5t-209 -83t-208 -43.5t-202 -11.5 q-118 0 -244.5 14.5t-216 29t-119.5 14.5zM542 637q10 0 32 23.5t36 42.5q78 105 282.5 244.5t414.5 252.5q242 130 355 209q247 172 401 417q48 76 89 161q40 94 40 123q0 8 -4 8q-15 0 -85 -103q-76 -111 -189 -206.5t-187 -139.5t-240 -132q-16 -9 -25 -14 q-112 -60 -204 -114t-206.5 -134t-201 -158t-165 -178.5t-121.5 -202.5q-28 -64 -28 -89q0 -10 6 -10z" />
<glyph unicode="&#xe003;" d="M1898 1432q-20 0 -35 15l-379 410q-15 15 -15 36q0 20 15 35l524 524q37 40 65 40q27 0 27 -41v-151q0 -14 0.5 -21t2.5 -18t6.5 -19t11.5 -15l465 -458q12 -12 12 -25q0 -20 -21 -36l-316 -210q-16 -11 -37 -11q-24 0 -42 14l-68 56q-13 13 -34 13q-23 0 -39 -16 l-107 -107q-15 -15 -36 -15zM100 0q-41 0 -70.5 29.5t-29.5 70.5v1044q0 21 9 47.5t21 43.5l191 265q10 14 10 33q0 25 -18 42l-194 248q-19 17 -19 40q0 19 14 33q12 12 27 12q13 0 41 -13q164 -120 224 -158q27 -17 61 -26.5t54 -9.5l20 -1h740q19 0 36 3t29 7t22.5 9.5 t17 10.5t11 9.5l6.5 6.5l2 3q14 14 35 14q22 0 35 -14l385 -411q15 -15 27.5 -40.5t12.5 -44.5v-1153q0 -41 -29.5 -70.5t-70.5 -29.5h-100q-27 0 -50 13.5t-36.5 36.5t-13.5 50v664q0 22 -11 38t-31 18l-858 180q-21 2 -47.5 -6t-42.5 -22l-210 -369v-503 q0 -41 -29.5 -70.5t-70.5 -29.5h-100z" />
<glyph unicode="&#xe004;" d="M150 100q-10 0 -19.5 4t-16 10.5t-10.5 16t-4 19.5v235q0 80 20.5 120t79.5 74q516 293 700 373v376q-100 73 -100 224v298q0 94 28.5 175t83.5 142.5t142 97t196 35.5t196 -35.5t142 -97t83.5 -142.5t28.5 -175v-298q0 -150 -100 -223v-377q44 -18 102.5 -46 t120.5 -60.5t122 -65t121 -67t104 -59t83.5 -48t46.5 -27.5q59 -34 79.5 -74t20.5 -120v-235q0 -21 -14.5 -35.5t-35.5 -14.5h-2200z" />
<glyph unicode="&#xe005;" d="M250 100q-21 0 -35.5 14.5t-14.5 35.5v50h1q-1 7 -1 18q0 17 2 35t11.5 46.5t25 55t45.5 56.5t70 54q21 13 121.5 82.5t218 145.5t206.5 121v202l-249 92l-206 -313l-230 231l347 116l138 258v400q0 97 36 187.5t100.5 160t159 111t204.5 41.5q97 0 186 -41.5t153.5 -111 t107 -160t53.5 -187.5v-400l137 -258l348 -116l-230 -231l-206 313l-249 -92v-202q88 -45 206 -121t218.5 -146t121.5 -82q49 -30 82.5 -67t47.5 -73t19 -61t5 -47v-17v-50q0 -21 -15 -35.5t-35 -14.5h-1900z" />
<glyph unicode="&#xe006;" d="M50 100q-21 0 -35.5 14.5t-14.5 35.5v1150l42 100h-92q-10 0 -19.5 4t-16 10.5t-10.5 16t-4 19.5v100q0 14 6.5 25.5t18 18t25.5 6.5h190l164 547q30 61 57 91.5t68 46t107 15.5h1328q66 0 107 -15.5t68 -46t57 -91.5l164 -547h190q21 0 35.5 -14.5t14.5 -35.5v-100 q0 -21 -14.5 -35.5t-35.5 -14.5h-92l42 -100v-1150q0 -21 -14.5 -35.5t-35.5 -14.5h-200q-21 0 -35.5 14.5t-14.5 35.5v150h-1800v-150q0 -21 -14.5 -35.5t-35.5 -14.5h-200zM344 1600h1712q-102 423 -119 460q-23 40 -60 40h-1354q-37 0 -60 -40q-8 -17 -37.5 -132 t-55.5 -221zM200 900h300v200l-400 110v-210zM1900 900h300l100 100v210l-400 -110v-200zM800 500h800v200h-800v-200z" />
<glyph unicode="&#xe007;" d="M2400 1500q-140 0 -252 57t-180 172t-68 271q0 146 67.5 261t181 177t251.5 62q136 0 251 -67t182 -182t67 -251t-67 -251t-182 -182t-251 -67zM150 100q-21 0 -35.5 14.5t-14.5 35.5v235q0 80 20.5 120t79.5 74q514 293 700 373v376q-100 73 -100 224v298q0 94 28.5 175 t83.5 142.5t142 97t196 35.5t196 -35.5t142 -97t83.5 -142.5t28.5 -175v-298q0 -149 -100 -223v-377q51 -21 123 -56.5t139 -71t145.5 -79t129.5 -72.5t104.5 -60t58.5 -34q59 -34 79.5 -74t20.5 -120v-235q0 -21 -14.5 -35.5t-35.5 -14.5h-2200zM2350 1700h100 q14 0 25.5 6.5t18 18t6.5 25.5v150h150q21 0 35.5 14.5t14.5 35.5v100q0 21 -14.5 35.5t-35.5 14.5h-150v150q0 21 -14.5 35.5t-35.5 14.5h-100q-21 0 -35.5 -14.5t-14.5 -35.5v-150h-150q-21 0 -35.5 -14.5t-14.5 -35.5v-100q0 -21 14.5 -35.5t35.5 -14.5h150v-150 q0 -21 14.5 -35.5t35.5 -14.5z" />
<glyph unicode="&#xe008;" d="M2400 1500q-140 0 -252 57t-180 172t-68 271q0 146 67.5 261t181 177t251.5 62q136 0 251 -67t182 -182t67 -251t-67 -251t-182 -182t-251 -67zM150 100q-21 0 -35.5 14.5t-14.5 35.5v235q0 80 20.5 120t79.5 74q514 293 700 373v376q-100 73 -100 224v298q0 94 28.5 175 t83.5 142.5t142 97t196 35.5t196 -35.5t142 -97t83.5 -142.5t28.5 -175v-298q0 -149 -100 -223v-377q51 -21 123 -56.5t139 -71t145.5 -79t129.5 -72.5t104.5 -60t58.5 -34q59 -34 79.5 -74t20.5 -120v-235q0 -21 -14.5 -35.5t-35.5 -14.5h-2200zM2150 1900h500 q21 0 35.5 14.5t14.5 35.5v100q0 21 -14.5 35.5t-35.5 14.5h-500q-21 0 -35.5 -14.5t-14.5 -35.5v-100q0 -21 14.5 -35.5t35.5 -14.5z" />
<glyph unicode="&#xe009;" d="M200 -100q-41 0 -70.5 29.5t-29.5 70.5v2400q0 41 29.5 70.5t70.5 29.5h2000q41 0 70.5 -29.5t29.5 -70.5v-2400q0 -41 -29.5 -70.5t-70.5 -29.5h-2000zM200 2100h300v200h-300v-200zM600 1300h1200v1000h-1200v-1000zM1900 2100h300v200h-300v-200zM200 1700h300v200 h-300v-200zM1900 1700h300v200h-300v-200zM200 1300h300v200h-300v-200zM1900 1300h300v200h-300v-200zM200 900h300v200h-300v-200zM600 100h1200v1000h-1200v-1000zM1900 900h300v200h-300v-200zM200 500h300v200h-300v-200zM1900 500h300v200h-300v-200zM200 100h300v200 h-300v-200zM1900 100h300v200h-300v-200z" />
<glyph unicode="&#xe010;" d="M651 1095l-154 499l-494 143l494 157l150 500l150 -500l493 -152l-493 -148zM1972 1752l-212 212l403 402q14 15 35 15t35 -15l142 -141q14 -15 14 -35.5t-14 -35.5zM171 21l-142 141q-14 15 -14 35.5t14 35.5l1572 1572l212 -213l-1572 -1571q-14 -15 -35 -15t-35 15z M2053 804l-79 266l-266 79l266 78l79 267l78 -267l266 -78l-266 -79zM1553 94l-101 344l-344 101l344 101l101 344l101 -344l343 -101l-343 -101z" />
<glyph unicode="&#xe011;" d="M1200 800l-1200 1200h2400zM0 600v1200l600 -600zM2400 600l-600 600l600 600v-1200zM0 400l700 700l500 -500l500 500l700 -700h-2400z" />
<glyph unicode="&#xe012;" d="M240 200q-92 0 -170.5 45.5t-124 124t-45.5 170.5v1020q0 92 45.5 170.5t124 124t170.5 45.5h341q1 1 1.5 3l1 4t0.5 4l32 78q35 87 126 149t185 62h546q94 0 185 -62t126 -149l32 -78q1 -2 1.5 -5.5t1.5 -5.5h341q92 0 170.5 -45.5t124 -124t45.5 -170.5v-1020 q0 -69 -27 -132t-72.5 -108.5t-108.5 -72.5t-132 -27h-1920zM2000 1500h200v100h-200v-100zM1200 475q107 0 204 41.5t167.5 112t112 167.5t41.5 204t-41.5 204t-112 167.5t-167.5 112t-204 41.5t-204 -41.5t-167.5 -112t-112 -167.5t-41.5 -204t41.5 -204t112 -167.5 t167.5 -112t204 -41.5zM1200 725q-114 0 -194.5 80.5t-80.5 194.5t80.5 194.5t194.5 80.5q75 0 138 -37t100 -100t37 -138q0 -114 -80.5 -194.5t-194.5 -80.5z" />
<glyph unicode="&#xe013;" d="M1178 125q-99 135 -222 274t-231 246.5t-219.5 216t-200 202t-159 186t-108.5 185t-38 181.5q0 133 56.5 256t148 210.5t212 140t245.5 52.5q57 0 111.5 -11t109.5 -34.5t105.5 -59t99 -86.5t90.5 -115q55 79 119 138.5t131.5 95.5t136.5 54t140 18q124 0 243 -52.5 t209 -140.5t144.5 -210.5t54.5 -255.5q0 -89 -38 -181.5t-108.5 -185t-159 -186t-200 -202t-219.5 -216t-231 -246.5t-222 -274z" />
<glyph unicode="&#xe014;" d="M2122 433v28q0 127 -62.5 239t-176.5 178q-109 63 -236 63q-89 0 -174 -32q-8 125 -73.5 234.5t-178.5 174.5q-118 68 -253 68q-117 0 -223 -52q-19 104 -78.5 192t-153.5 143q-111 64 -238 64q-150 0 -275 -86q25 57 57 112q112 194 282 333.5t369.5 210t412.5 70.5 q275 0 523 -117l54 93q14 24 38 37.5t51 13.5t51 -14t37.5 -38t13.5 -51t-14 -51l-54 -93q252 -174 390.5 -443t138.5 -567q0 -327 -165 -612q-28 -49 -63 -98zM867 1544l18 29q61 97 130.5 176t129.5 128.5t123 86t107.5 54t86.5 27.5t57.5 11.5t22.5 1.5l8 38 q-204 92 -428 92q-190 0 -367 -66.5t-320 -189.5l-26 -23l33 -11q88 -28 142 -51.5t103.5 -60.5t86.5 -86t77 -126zM2138 910l7 34q19 99 19 199q0 251 -114.5 476t-319.5 372l-28 -25q2 -4 6 -13t13.5 -35t16.5 -56t13 -77t6 -96q0 -256 -147 -534l-16 -31l34 2q23 1 48 1 q96 0 166 -20t129 -59t142 -114zM353 19l669 1158q53 -11 98 -37q42 -25 79 -64l-610 -1057h-236z" />
<glyph unicode="&#xe015;" d="M600 400q-110 0 -188.5 35t-124.5 103t-66.5 156.5t-20.5 205.5v300q0 89 42.5 339.5t85.5 456.5l42 207q12 82 79.5 139.5t150.5 57.5h1200q83 0 150.5 -57.5t79.5 -139.5q19 -90 47 -229t75.5 -412t47.5 -362v-300q0 -64 -12.5 -129t-42.5 -133t-74 -120t-114.5 -85 t-156.5 -33h-1200zM1200 1069q112 0 235.5 24t220 57.5t177 67.5t123.5 58l44 24l-150 872q-2 8 -13 18t-20 10h-1229q-9 0 -20.5 -10t-12.5 -18l-155 -872q16 -9 45.5 -25t120 -55.5t181 -70t216 -55.5t237.5 -25zM800 700v200l-400 200v-300zM1600 700l400 100v300 l-400 -200v-200zM200 -200l446 500h220l-266 -500h-400zM1800 -200l-273 500h220l453 -500h-400z" />
<glyph unicode="&#xe016;" d="M550 1406q-21 0 -34 14.5t-11 35.5l190 894q2 21 18 35.5t37 14.5h900q21 0 37 -14.5t18 -35.5l190 -894q2 -21 -11 -35.5t-34 -14.5h-1300zM50 200q-20 0 -35 16t-15 37v1397q0 21 14.5 35.5t35.5 14.5h297q21 0 37 -15t16 -35v-300q0 -21 13 -35.5t34 -14.5h1503 q21 0 35.5 14.5t14.5 35.5v300q0 21 14.5 35.5t35.5 14.5h300q21 0 35.5 -14.5t14.5 -35.5v-1397q0 -21 -15 -37t-35 -16h-370q-21 0 -39 15t-23 35l-39 202q-5 20 -23 34t-39 14h-1234q-21 0 -39 -14.5t-23 -34.5l-39 -201q-3 -13 -12.5 -24.5t-22.5 -18.5t-27 -7h-370z M200 1398q41 0 70.5 29t29.5 71q0 41 -29.5 70.5t-70.5 29.5t-70.5 -29.5t-29.5 -70.5q0 -42 29.5 -71t70.5 -29zM600 0q-12 0 -21 5t-13.5 13.5t-4.5 18.5q0 6 1 11l76 304q5 20 23 34t39 14h1000q21 0 39 -14t23 -34l76 -304q1 -5 1 -11q0 -16 -11 -26.5t-28 -10.5h-1200z " />
<glyph unicode="&#xe017;" d="M250 2000q-21 0 -35.5 14.5t-14.5 35.5v100q0 21 14.5 35.5t35.5 14.5h550v200q0 82 59 141t141 59h400q82 0 141 -59t59 -141v-200h550q21 0 35.5 -14.5t14.5 -35.5v-100q0 -21 -14.5 -35.5t-35.5 -14.5h-1900zM1000 2200h400v200h-400v-200zM350 0q-17 0 -29.5 8 t-16.5 16l-4 9v1817q0 26 11 38t39 12h1679q71 0 71 -41v-1809q0 -23 -20 -36.5t-51 -13.5h-1679zM650 300h100q21 0 35.5 14.5t14.5 35.5v1200q0 21 -14.5 35.5t-35.5 14.5h-100q-21 0 -35.5 -14.5t-14.5 -35.5v-1200q0 -21 14.5 -35.5t35.5 -14.5zM1150 300h100 q21 0 35.5 14.5t14.5 35.5v1200q0 21 -14.5 35.5t-35.5 14.5h-100q-21 0 -35.5 -14.5t-14.5 -35.5v-1200q0 -21 14.5 -35.5t35.5 -14.5zM1650 300h100q21 0 35.5 14.5t14.5 35.5v1200q0 21 -14.5 35.5t-35.5 14.5h-100q-21 0 -35.5 -14.5t-14.5 -35.5v-1200 q0 -21 14.5 -35.5t35.5 -14.5z" />
<glyph unicode="&#xe018;" d="M594 13q-76 -25 -154 -25q-74 0 -139 22.5t-110.5 63.5t-62.5 96q-10 29 -10 61q0 101 85.5 196t219.5 138q101 33 188 33q48 0 89 -10v1377q0 21 14 39.5t34 24.5l1404 369q6 2 12 2q16 0 26 -10.5t10 -27.5v-1762q-5 -78 -91 -162t-214 -125q-77 -25 -155 -25 q-113 0 -199.5 49.5t-112.5 131.5q-10 30 -10 62q0 100 85.5 195t219.5 139q101 32 188 32q48 0 89 -10v980l-1100 -293v-1274q-5 -78 -90.5 -161.5t-215.5 -125.5z" />
<glyph unicode="&#xe019;" d="M928 29q-103 -34 -206 -34q-133 0 -232 55t-130 150q-11 36 -11 74q0 120 103.5 232t267.5 166q90 29 178 29q46 0 105 -9l1 1647q0 25 17.5 43t43.5 18h174q25 0 43 -18t18 -43v-55q40 -20 114.5 -50t138 -55t139 -63.5t131.5 -78t101 -96t61 -121.5q15 -60 15 -120 q0 -73 -22 -142.5t-55 -119.5t-73 -92t-73 -65.5t-58 -33.5q-24 -10 -34 -10q-9 0 -9 6t6.5 15t12.5 16l6 7q3 4 8.5 12.5t18.5 35t23.5 53.5t18.5 65.5t8 74.5q0 76 -36 137q-19 31 -53.5 54t-74 35t-86 22t-87 16t-79.5 16.5t-62 23.5v-1415q0 -2 -1 -6t-1 -5 q-12 -114 -113.5 -217.5t-256.5 -153.5z" />
<glyph unicode="&#xe020;" d="M1200 125q-88 120 -194 242.5t-201.5 218.5t-196.5 196.5t-185 182.5t-160 169t-128 163t-82.5 158.5t-30.5 160.5q0 133 56 256t148 210.5t212.5 140t245.5 52.5q96 0 185 -31t175.5 -100.5t155.5 -174.5q73 105 162.5 174.5t179.5 100.5t185 31q125 0 244 -52.5 t208.5 -140t144 -210.5t54.5 -256q0 -78 -30.5 -160.5t-82.5 -158.5t-128 -163t-160 -169t-185 -182.5t-196.5 -196.5t-201.5 -218.5t-194 -242.5zM1200 526q71 82 160.5 176t142 146.5t154.5 152.5q56 54 83.5 81.5l77 77t75 77t64 70.5t59 71t45.5 64t37.5 63.5t21 56.5 t8.5 55q0 84 -36 161.5t-93.5 130.5t-129 84.5t-142.5 31.5q-90 0 -172 -50.5t-149 -148.5l-212 -305l-203 311q-126 193 -307 193q-73 0 -146.5 -31.5t-132.5 -84.5t-96 -130.5t-37 -161.5q0 -26 8.5 -55t21 -56.5t37.5 -63.5t45.5 -64t59 -71t64.5 -71t75 -77.5 t77.5 -77.5t84.5 -82q98 -97 152 -150.5t143 -147t160 -175.5z" />
<glyph unicode="&#xe021;" d="M400 0v1100h-397l1248 1242l1 -5l348 -345v308h300v-605l600 -595h-400v-1100h-600v600h-500v-600h-600z" />
<glyph unicode="&#xe022;" d="M942 -81q-6 -3 -13 -3q-14 0 -21 12l-155 269q-4 5 -4 12q0 15 13 22l258 149v508l-440 -254v-298q0 -10 -7.5 -17.5t-17.5 -7.5h-310q-11 0 -18 7.5t-7 17.5v298l-258 149q-13 7 -13 22q0 6 3 12l155 269q8 12 22 12q7 0 13 -3l258 -149l440 254l-440 254l-258 -149 q-6 -3 -13 -3q-14 0 -22 12l-155 269q-3 5 -3 12q0 15 13 22l258 149v298q0 10 7 17.5t18 7.5h310q10 0 17.5 -7.5t7.5 -17.5v-298l440 -254v508l-258 149q-13 7 -13 22q0 7 4 12l155 269q7 12 21 12q7 0 13 -3l258 -149l258 149q6 3 13 3q14 0 21 -12l155 -269q4 -5 4 -12 q0 -15 -13 -22l-258 -149v-508l440 254v298q0 10 7.5 17.5t17.5 7.5h310q11 0 18 -7.5t7 -17.5v-298l258 -149q13 -7 13 -22q0 -7 -4 -12l-154 -269q-8 -12 -22 -12q-7 0 -13 3l-258 149l-440 -254l440 -254l258 149q6 3 13 3q14 0 22 -12l155 -269q3 -6 3 -12 q0 -15 -13 -22l-258 -149v-298q0 -10 -7 -17.5t-18 -7.5h-310q-10 0 -17.5 7.5t-7.5 17.5v298l-440 254v-508l258 -149q13 -7 13 -22q0 -7 -4 -12l-155 -269q-7 -12 -21 -12q-7 0 -13 3l-258 149z" />
<glyph unicode="&#xe023;" d="M1023 11q-129 36 -241.5 121t-191.5 196.5t-124.5 246t-45.5 268.5q0 86 22 171t53.5 156t62.5 141t53 151t22 160q0 78 -21 160q59 -11 111 -45t90.5 -82.5t67 -108t43 -124.5t14.5 -129q0 -146 -72 -238q89 54 152 120t97 136t55.5 146.5t33 155.5t23.5 159.5t34 162.5 t57 158.5t100 154.5t156 145q-40 -85 -40 -176q0 -83 33 -174.5t86.5 -178.5t119 -179t132.5 -189t124.5 -193t98.5 -206.5t50 -216.5q3 -36 3 -72q0 -118 -35 -230t-105.5 -216t-187 -193.5t-269.5 -151.5q200 184 200 405q0 77 -13.5 143t-36 123.5t-46.5 118t-48.5 152 t-39.5 197.5q-9 -62 -51 -126t-102.5 -120t-131.5 -113t-140 -114.5t-126 -115.5t-92 -125t-35 -134q2 -56 12 -109.5t33.5 -106.5t55.5 -81z" />
<glyph unicode="&#xe024;" d="M100 1800v400q0 41 29.5 70.5t70.5 29.5h400q41 0 70.5 -29.5t29.5 -70.5v-400h-600zM1600 1800v400q0 41 29.5 70.5t70.5 29.5h400q41 0 70.5 -29.5t29.5 -70.5v-400h-600zM1144 0q-175 0 -335 53.5t-288 153.5t-223 234t-146.5 304t-51.5 355v500h600v-498 q0 -93 27.5 -181t80.5 -160.5t140 -116.5t196 -44h12q88 0 162 29t125.5 78t87.5 114t52.5 136t16.5 145v498h600v-500q0 -232 -80.5 -436.5t-219.5 -350t-332.5 -229.5t-411.5 -84h-12z" />
<glyph unicode="&#xe025;" d="M-450 100q-10 0 -19 4t-16 10.5t-11 16t-4 19.5v235q0 80 20.5 120t79.5 74q499 286 700 373v376q-100 73 -100 224v298q0 94 28.5 175t83.5 142.5t142 97t196 35.5t196 -35.5t142 -97t83.5 -142.5t28.5 -175v-298q0 -150 -100 -223v-377q44 -18 102.5 -46t120.5 -60.5 t122 -65t121.5 -67.5t103.5 -59t83 -47.5t47 -27.5q59 -34 79.5 -74t20.5 -120v-235q0 -21 -14.5 -35.5t-35.5 -14.5h-2200zM1900 100v328q0 51 -6.5 88.5t-25 73.5t-52 66.5t-85.5 60.5q-17 10 -38 22t-48.5 27.5t-44.5 25.5v35q-83 5 -161 33q-70 39 -141 77 q-40 29 -73 65q-15 17 -15 35q0 23 22.5 50t67 67.5t69.5 69.5q62 72 81.5 150t19.5 232q0 71 28 140t77.5 125.5t125.5 92t164 36.5q59 -1 113.5 -17.5t97 -44.5t77.5 -66t58.5 -81.5t36 -90.5t12.5 -94q0 -156 18 -233t80 -149q23 -27 66 -68.5t63.5 -67.5t20.5 -49 q0 -19 -17 -37q-24 -27 -58 -53t-82.5 -53t-114 -46t-136.5 -23v-199q145 -63 296.5 -135t201.5 -100q49 -28 75.5 -61.5t26.5 -81.5v-100q0 -21 -13 -35.5t-33 -14.5h-754z" />
<glyph unicode="&#xe026;" d="M0 200v300l200 700l300 900h100v300l400 -100v-200h400v200l400 100v-300h100l300 -900l200 -700v-300h-900v300l100 700h-800l100 -700v-300h-900zM0 0v100h900v-100h-900zM1500 0v100h900v-100h-900z" />
<glyph unicode="&#xe027;" d="M-200 0l862 2400h417l-40 -600h323l-40 600h417l861 -2400h-1077l-81 900h-484l-81 -900h-1077zM976 1100h448l-53 600h-341z" />
<glyph unicode="&#xe028;" d="M2076 40l-588 588q-235 -152 -513 -152q-129 0 -252 34t-227 95.5t-192 149t-149 192t-95.5 227.5t-34.5 252q0 110 25 216.5t72 200t112 176t147.5 147.5t176 112t200 72t217.5 25q129 0 252 -34t227 -95.5t191.5 -149t149 -192t95.5 -227.5t34 -251q0 -278 -152 -514 l588 -588q15 -14 15 -35t-15 -36l-213 -213q-15 -15 -36 -15t-35 15zM975 778q88 0 172 23t155 65t130.5 102t101.5 131t65.5 155t23.5 172q0 131 -51.5 251t-138.5 207t-207 138t-251.5 51t-251.5 -51t-206.5 -138t-138 -207t-51.5 -251.5t51.5 -251.5t138 -207t206.5 -138 t252 -51z" />
<glyph unicode="&#xe029;" d="M2750 500q-14 0 -25.5 6.5t-18 18t-6.5 25.5v150h-800v100h500v200h-400v273q0 74 -28 100.5t-103 26.5h-94l-150 400h1031q-52 223 -69 260q-23 40 -60 40h-904q-37 0 -60 -40q-5 -12 -16 -32.5t-20 -34.5l-8 -15q-82 57 -160 80l45 89q28 56 54.5 87t70 48.5 t107.5 17.5h878q45 0 77.5 -6.5t54 -16t40 -31t30 -41.5t30.5 -58l114 -247h190q21 0 35.5 -14.5t14.5 -35.5v-100q0 -21 -14.5 -35.5t-35.5 -14.5h-92l42 -100v-1050q0 -21 -14.5 -35.5t-35.5 -14.5h-200zM-350 -200q-21 0 -35.5 14.5t-14.5 35.5v1150l42 100h-92 q-21 0 -35.5 14.5t-14.5 35.5v100q0 21 14.5 35.5t35.5 14.5h190l164 447q30 61 57 91.5t68 46t107 15.5h1128q66 0 107 -15.5t68 -46t57 -91.5l164 -447h190q21 0 35.5 -14.5t14.5 -35.5v-100q0 -21 -14.5 -35.5t-35.5 -14.5h-92l42 -100v-1150q0 -21 -14.5 -35.5 t-35.5 -14.5h-200q-21 0 -35.5 14.5t-14.5 35.5v150h-1600v-150q0 -21 -14.5 -35.5t-35.5 -14.5h-200zM-56 1200h1512q-102 423 -119 460q-23 40 -60 40h-1154q-37 0 -60 -40q-8 -17 -37.5 -132t-55.5 -221zM2600 1200h200l100 100v210l-300 -110v-200zM-200 600h300v200 l-400 110v-210zM1300 600h300l100 100v210l-400 -110v-200zM300 200h800v200h-800v-200z" />
<glyph unicode="&#xe030;" d="M702 2100q-41 0 -71.5 29.5t-30.5 70.5v198q0 27 14 50.5t37.5 37.5t50.5 14h198v92q0 42 30 75t70 33h400q27 0 50 -15.5t36.5 -40.5t13.5 -52v-92h198q41 0 71.5 -30.5t30.5 -71.5v-198q0 -41 -30.5 -70.5t-71.5 -29.5h-996zM250 0q-14 0 -25.5 6.5t-18 18t-6.5 25.5 v2300q0 21 14.5 35.5t35.5 14.5h250v-300q0 -27 13.5 -50t36.5 -36.5t50 -13.5h1200q41 0 70.5 29.5t29.5 70.5v300h250q21 0 35.5 -14.5t14.5 -35.5v-2300q0 -21 -14.5 -35.5t-35.5 -14.5h-1900zM600 1700h1300v100h-1300v-100zM500 1500h1400v100h-1400v-100zM500 1300 h1000v100h-1000v-100zM600 1100h1300v100h-1300v-100zM500 900h1400v100h-1400v-100zM500 700h1400v100h-1400v-100zM500 500h1400v100h-1400v-100zM500 300h500v100h-500v-100z" />
<glyph unicode="&#xe031;" d="M2177 1769l-408 408l204 204q21 21 51 21t51 -21l306 -306q21 -21 21 -51t-21 -51zM770 361l-408 409l1284 1284l408 -408zM31 2q-9 -4 -16 -4q-17 0 -17 17q0 7 4 16l236 615l408 -408z" />
<glyph unicode="&#xe032;" d="M50 0q-21 0 -35.5 14.5t-14.5 35.5v2036q-100 -54 -100 -86v-400q0 -42 -26 -71t-67 -29h-100q-42 0 -74.5 29.5t-32.5 70.5v400q0 31 47.5 69.5t127.5 77t154.5 69.5t159.5 62l66 133q19 36 61.5 62.5t83.5 26.5h1800q27 0 56 -12t53 -32.5t36 -44.5l66 -132 q84 -31 158.5 -62t155 -70t128 -77.5t47.5 -69.5v-400q0 -41 -29.5 -70.5t-70.5 -29.5h-100q-41 0 -70.5 29.5t-29.5 70.5v400q0 32 -100 86v-2036q0 -21 -14.5 -35.5t-35.5 -14.5h-200q-21 0 -35.5 14.5t-14.5 35.5v150h-1800v-150q0 -21 -14.5 -35.5t-35.5 -14.5h-200z M1200 889q130 0 252.5 7t215 18t174 24t137 26t96 24t59.5 17l19 7q19 7 33 26.5t14 40.5v971q0 21 -14.5 35.5t-35.5 14.5h-1900q-21 0 -35.5 -14.5t-14.5 -35.5v-971q0 -21 14 -40.5t33 -26.5q13 -5 38 -13t114 -29.5t190.5 -37.5t267 -29.5t343.5 -13.5zM200 500h300v200 l-400 100v-210zM1900 500h300l100 90v210l-400 -100v-200zM900 300h700v200h-700v-200z" />
<glyph unicode="&#xe033;" d="M292 669q-185 181 -288.5 421t-103.5 507.5t103.5 507.5t288.5 421l141 -141q-103 -101 -177 -224t-115 -267.5t-41 -295.5q0 -227 88 -430.5t245 -356.5zM2108 669l-141 142q157 153 245 356.5t88 430.5t-88 430.5t-245 356.5l141 141q185 -181 288.5 -421t103.5 -507.5 t-103.5 -507.5t-288.5 -421zM656 1033q-75 72 -128.5 160t-83.5 192t-30 213q0 163 64 308.5t178 255.5l141 -141q-86 -82 -134.5 -191.5t-48.5 -232t48.5 -232t134.5 -190.5zM1744 1033l-141 142q86 81 134.5 190.5t48.5 232t-48.5 232t-134.5 191.5l141 141 q114 -110 178 -255.5t64 -308.5t-64 -309t-178 -256zM1000 0l121 1361q-76 25 -124 90t-48 147q0 68 33.5 125.5t91.5 91t126 33.5q104 0 177.5 -73t73.5 -177q0 -82 -48 -147t-124 -90l121 -1361h-400z" />
<glyph unicode="&#xe034;" d="M900 2200v300h-50q-21 0 -35.5 14.5t-14.5 35.5v100q0 21 14.5 35.5t35.5 14.5h800q21 0 35.5 -14.5t14.5 -35.5v-100q0 -21 -14.5 -35.5t-35.5 -14.5h-50v-300h-200v300h-300v-300h-200zM600 200q-124 0 -212 88t-88 212v1300q0 124 88 212t212 88h1300q124 0 212 -88 t88 -212v-1300q0 -124 -88 -212t-212 -88h-1300zM1150 1600h200q21 0 35.5 14.5t14.5 35.5v100q0 21 -14.5 35.5t-35.5 14.5h-200q-21 0 -35.5 -14.5t-14.5 -35.5v-100q0 -21 14.5 -35.5t35.5 -14.5zM750 -100q-62 0 -106 44t-44 106q0 24 9 50h282q9 -26 9 -50 q0 -62 -44 -106t-106 -44zM1750 -100q-62 0 -106 44t-44 106q0 24 9 50h282q9 -26 9 -50q0 -62 -44 -106t-106 -44z" />
<glyph unicode="&#xe035;" d="M150 100q-21 0 -35.5 14.5t-14.5 35.5v239q0 80 20.5 120t79.5 74q510 291 700 372v250q-100 72 -100 223v165q-35 13 -66.5 27.5t-55 28t-41 26t-26.5 22t-9 15.5q0 15 4.5 31t11.5 28.5t17 20.5t21 8h113l146 658q-4 37 26 37q8 0 19 -4l239 -68q22 -8 53 -8q29 0 49 7 l239 76q12 4 21 4q28 0 24 -34l146 -668h113q21 0 37.5 -28t16.5 -60q0 -10 -24 -29t-70.5 -43.5t-103.5 -46.5v-165q0 -149 -100 -222v-250q51 -21 123.5 -56.5t138.5 -70.5t146 -79.5t129 -72.5t105 -60.5t58 -33.5q59 -34 79.5 -74t20.5 -120v-239q0 -21 -14.5 -35.5 t-35.5 -14.5h-2200z" />
<glyph unicode="&#xe036;" d="M150 100q-8 0 -15.5 2.5t-14 7t-11 11t-7 14t-2.5 15.5v122q0 57 29 96t83 70q30 17 159.5 64t286 106t242.5 103v230q-71 5 -142.5 27t-127.5 53t-98.5 62t-69.5 61q-18 20 -18 41q0 27 25 57.5t76 78t79 80.5q37 43 59.5 84t35.5 94.5t17.5 113t4.5 151.5q0 40 8.5 81 t24 80t39 76t52.5 69.5t66 59.5t78.5 46.5t90 31t100.5 11.5q69 -1 132 -20t112.5 -51.5t90.5 -76.5t68 -94.5t41.5 -105t14.5 -107.5q0 -179 22.5 -269.5t94.5 -173.5q25 -29 61.5 -64.5t60 -57.5t41 -47.5t17.5 -46.5t-18 -41q-27 -30 -69.5 -61t-98.5 -62t-127.5 -53 t-142.5 -27v-230q86 -44 242.5 -103t286 -106t159.5 -64q26 -15 46 -31t35 -36t23 -45t8 -54v-122q0 -21 -14.5 -35.5t-35.5 -14.5h-2100z" />
<glyph unicode="&#xe037;" d="M250 0q-21 0 -35.5 14.5t-14.5 35.5v2300q0 21 14.5 35.5t35.5 14.5h1050v-750q0 -21 14.5 -35.5t35.5 -14.5h750v-1550q0 -21 -14.5 -35.5t-35.5 -14.5h-1800zM1450 1700q-21 0 -35.5 14.5t-14.5 35.5v650l700 -700h-650z" />
<glyph unicode="&#xe038;" d="M1597 3q-158 0 -311 56q-169 -43 -351 -55q-68 -4 -135 -4q-259 0 -506 64q-58 16 -101.5 30.5t-97 38.5t-95 58t-66.5 77q-32 53 -32 154q0 25 2.5 72t2.5 67q0 81 72 147q-79 73 -79 147v196q0 104 134 192q-34 49 -34 102v196q0 104 135 192q-35 49 -35 102v196 q0 211 450 316q207 49 442 49q146 0 295 -19q82 -10 151 -24t150.5 -38.5t150 -64.5t115.5 -93q55 -63 55 -193q0 -23 -1.5 -66t-1.5 -63q0 -33 -25 -74q136 -45 252 -133t196 -202t125.5 -251t45.5 -279q0 -65 -10 -129q-19 -127 -75.5 -244.5t-142 -211t-191.5 -163.5 t-230.5 -107.5t-253.5 -37.5zM999 1816q245 0 491 64q4 1 29.5 7.5t34.5 9t34 10t36.5 13t32.5 14.5t32.5 18t25 21t22 26t12.5 30l-2 5q-4 16 -15 31t-24 26t-34 22.5t-36.5 19t-41 16.5t-38.5 13t-38 11.5t-31 8.5q-210 65 -496 65q-291 0 -507 -67q-7 -2 -36.5 -11 t-43.5 -13.5t-41.5 -14.5t-43.5 -20t-35 -23t-31 -29.5t-17 -35.5l1 -5q5 -15 15 -29t22 -25.5t31 -23t34.5 -19.5t40 -17t39.5 -14t41.5 -12t38 -10t35.5 -8.5t28 -6.5q195 -47 435 -47zM845 1326q48 87 139 186q-164 3 -385 50.5t-312 90.5q-30 -12 -56.5 -28.5t-42 -31 t-27 -27.5t-15.5 -21l-5 -7q5 -17 15.5 -32t28.5 -28t33.5 -23.5t43 -21t43 -17t47 -15t42 -11t41 -10t31.5 -7.5q161 -39 379 -47zM1495 206q53 -8 106 -8q136 0 265 56.5t224 151.5t153 225t58 269q0 141 -57 271.5t-151.5 226.5t-225 154t-271.5 58q-127 0 -258 -49 q-136 -55 -238 -158.5t-154.5 -233.5t-52.5 -271q0 -165 74 -313q50 -100 131 -180.5t184 -132t213 -66.5zM737 837q-2 31 -2 64q0 62 8 126q-354 26 -554 136q-2 -1 -16 -7t-19 -8t-18.5 -8.5t-20.5 -10.5t-18.5 -11t-18 -13t-14.5 -13.5t-13 -16t-7 -16.5l-2 -6l1 -5 q7 -23 29.5 -44.5t47 -35.5t63 -29t59 -21.5t54.5 -15.5l12 -4q177 -51 429 -61zM931 347q-69 82 -102 145q-128 6 -272.5 24t-268 48.5t-145.5 63.5l-11 16q-24 -7 -42 -19t-26.5 -23t-13.5 -21.5t-6 -16.5l-1 -6q5 -18 16 -33.5t29 -29t35.5 -24.5t44 -21t45 -17t48.5 -15 t44 -11.5t42 -10t34 -8.5q64 -15 140.5 -23.5t130 -10.5t144 -3.5t135.5 -3.5z" />
<glyph unicode="&#xe039;" d="M748 -97q-7 -2 -13 -2q-8 0 -14 2.5t-11 7.5t-7.5 12t-2.5 16v75q0 21 11.5 45t27.5 36l261 211v600l-956 -498q-9 -5 -18 -5q-12 0 -19 8.5t-7 23.5v171q0 21 11 45t27 37l862 720v698q0 55 20 107t57.5 94t96 67.5t129.5 25.5t129 -25.5t94 -67.5t55 -93.5t19 -107.5 v-698l862 -720q16 -13 27 -37t11 -45v-170q0 -15 -7 -23.5t-19 -8.5q-9 0 -18 5l-956 497v-600l261 -211q16 -12 27.5 -36t11.5 -45v-75q0 -17 -9.5 -27.5t-25.5 -10.5q-6 0 -13 2l-352 103q-20 6 -100 6t-100 -6z" />
<glyph unicode="&#xe040;" d="M200 2000v400q0 41 29.5 70.5t70.5 29.5t70.5 -29.5t29.5 -70.5h100q0 41 29.5 70.5t70.5 29.5t70.5 -29.5t29.5 -70.5h100q0 41 29.5 70.5t70.5 29.5t70.5 -29.5t29.5 -70.5h100q0 41 29.5 70.5t70.5 29.5t70.5 -29.5t29.5 -70.5h100q0 41 29.5 70.5t70.5 29.5 t70.5 -29.5t29.5 -70.5h100q0 41 29.5 70.5t70.5 29.5t70.5 -29.5t29.5 -70.5h100q0 41 29.5 70.5t70.5 29.5t70.5 -29.5t29.5 -70.5v-400h-2000zM250 0q-21 0 -35.5 14.5t-14.5 35.5v1850h2000v-1850q0 -21 -14.5 -35.5t-35.5 -14.5h-1900zM600 1500h1300v100h-1300v-100z M500 1300h1000v100h-1000v-100zM600 1100h1300v100h-1300v-100zM500 900h1400v100h-1400v-100zM500 700h1400v100h-1400v-100zM500 500h1400v100h-1400v-100zM500 300h500v100h-500v-100z" />
<glyph unicode="&#xe041;" d="M2286 2007l-86 -130v-77h300v-100h-300v-300h300v-100h-300v-300h300v-100h-300v-300h300v-100h-300v-300h300v-200h-2500v2500h200v-300h300v300h100v-300h300v300h100v-300h300v300h100v-300h300v300h100v-300h300v300h100v-52q67 50 150 50q68 0 125.5 -33.5t91 -91 t33.5 -125.5q0 -104 -73 -177t-177 -73q-29 0 -64 9zM500 1800v300h-300v-300h300zM900 1800v300h-300v-300h300zM1000 2100v-300h300v300h-300zM1700 1800v300h-300v-300h300zM2100 1998v102h-300v-300h169zM500 1400v300h-300v-300h300zM900 1400v300h-300v-300h300z M1000 1700v-300h300v300h-300zM1700 1593v107h-300v-300h105q7 29 19.5 55.5t30.5 48.5t40.5 40t49 30.5t55.5 18.5zM1800 1700v-108q13 -3 27 -7l77 115h-104zM2100 1400v300h-17l-133 -203q33 -44 44 -97h106zM500 1000v300h-300v-300h300zM900 1193v107h-300v-300h5 q19 86 87.5 142t157.5 56q25 0 50 -5zM1000 1300v-153q21 -16 38 -36l426 189h-64v-28l-100 -44v72h-300zM2100 1000v300h-105q-14 -74 -67.5 -128t-127.5 -69v-103h300zM1700 1000v103q-79 16 -135 78l-165 -73v-108h300zM1300 1000v63l-143 -63h143zM500 661v239h-300 v-300h247zM600 900v-123l37 42q-24 39 -32 81h-5zM1300 600v300h-205q-18 -94 -95 -152v-148h300zM1700 600v300h-300v-300h300zM2100 600v300h-300v-300h300zM900 600v103q-25 -5 -50 -5q-52 0 -101 21l-103 -119h254zM200 500v-185l160 185h-160zM900 200v300h-300v-300 h300zM1300 200v300h-300v-300h300zM1700 200v300h-300v-300h300zM2100 200v300h-300v-300h300zM500 200v232l-201 -232h201z" />
<glyph unicode="&#xe042;" d="M-200 0v200h200v450q0 21 14.5 35.5t35.5 14.5h400q21 0 35.5 -14.5t14.5 -35.5v-450h100v1050q0 21 14.5 35.5t35.5 14.5h400q21 0 35.5 -14.5t14.5 -35.5v-1050h100v2150q0 21 14.5 35.5t35.5 14.5h400q21 0 35.5 -14.5t14.5 -35.5v-2150h100v1450q0 21 14.5 35.5 t35.5 14.5h400q21 0 35.5 -14.5t14.5 -35.5v-1450h200v-200h-2700z" />
<glyph unicode="&#xe043;" d="M1200 81q-148 0 -290.5 40t-265 112t-226 175t-176.5 225t-114 267t-41 296q0 152 40.5 297t112.5 267t175.5 225t226 175t267.5 112t297 40q226 0 429 -86t358 -241l-793 -789v-1115zM2193 408l-788 788l788 789q161 -160 244 -365t83 -423.5t-83 -423.5t-244 -365z M1300 -12v1116l789 -789q-162 -163 -362 -245t-427 -82z" />
<glyph unicode="&#xe044;" d="M27 2q-11 0 -19 11t-8 22v250q0 80 20.5 120t79.5 74q513 292 700 373v376q-100 73 -100 224v298q0 94 28.5 175t83.5 142.5t142 97t196 35.5t196 -35.5t142 -97t83.5 -142.5t28.5 -175v-298q0 -150 -100 -223v-377q51 -21 123.5 -56.5t138.5 -70.5t145.5 -79t129 -72.5 t105 -60.5t58.5 -34q41 -23 62 -48t29.5 -58t8.5 -88v-250q0 -11 -8 -22t-19 -11h-2246zM-581 400q-4 0 -7.5 2t-6 5.5t-4 7.5t-1.5 8v174q0 51 22 79.5t69 55.5l68.5 41.5t129.5 76.5t151.5 77.5t159.5 63.5v262q-25 8 -42.5 17t-28 21.5t-17 22.5t-9 28.5t-3 30t-0.5 36.5 v178q0 66 18 121.5t53.5 99t94 68t134.5 24.5t134.5 -24.5t94 -67.5t53.5 -99t18 -122v-178q0 -29 -1 -42.5t-5.5 -34t-15 -32t-30 -24.5t-48.5 -22v-263q77 -23 185 -76q-202 -102 -545 -297l-14 -8q-73 -42 -112 -93.5t-53 -116.5h-442zM2439 400q-15 65 -53.5 116.5 t-111.5 93.5l-35 20q-333 192 -522 286q105 52 183 75v262q-29 10 -48.5 22.5t-30 24t-15 32t-5.5 34.5t-1 43v178q0 66 18 122t53.5 99t94 67.5t134.5 24.5t134.5 -24.5t94 -67.5t53.5 -99t18 -122v-178q0 -29 -1 -42.5t-5.5 -34t-15 -32t-30 -24.5t-48.5 -22v-263 q69 -21 159.5 -63.5t151.5 -77.5t129.5 -76.5l68.5 -41.5q47 -27 69 -55.5t22 -79.5v-174q0 -8 -5.5 -15.5t-13.5 -7.5h-442z" />
<glyph unicode="&#xe045;" d="M688 -100l-188 200v1100h-149q-20 0 -38.5 14t-23.5 34l-275 1103q-2 6 -2 12q0 17 11 29.5t28 14.5l600 86q49 7 99 7t99 -7l600 -86q17 -2 28 -14.5t11 -29.5q0 -5 -2 -12l-275 -1103q-3 -13 -12.5 -24t-23 -17.5t-26.5 -6.5h-149v-1100l-100 -99v999l-33 200h-34 l-33 -200v-100h-100v-100h100v-100h-100v-100h100v-100h-100v-100h100v-100h-100v-100h100v-100h-100v-100h100v-97l-3 -3h-109zM750 1906q80 0 137 57t57 137t-57 137t-137 57t-137 -57t-57 -137t57 -137t137 -57zM2253 13l-276 55l-608 927l-108 -75q-14 -10 -30 -10 t-31 10v120q72 4 120 50t66 120l248 1074l305 -846q3 -9 3 -20q0 -36 -28 -55l-134 -89l610 -928l-47 -272z" />
<glyph unicode="&#xe046;" d="M0 1800v300q0 41 29.5 70.5t70.5 29.5h200v100q0 41 29.5 70.5t70.5 29.5h100q41 0 70.5 -29.5t29.5 -70.5v-100h1100v100q0 41 29.5 70.5t70.5 29.5h100q41 0 70.5 -29.5t29.5 -70.5v-100h200q41 0 70.5 -29.5t29.5 -70.5v-300h-2300zM100 0q-41 0 -70.5 29.5 t-29.5 70.5v1600h2300v-1600q0 -41 -29.5 -70.5t-70.5 -29.5h-2100zM200 1000h300v300h-300v-300zM600 1000h300v300h-300v-300zM1000 1000h300v300h-300v-300zM1400 1000h300v300h-300v-300zM1800 1000h300v300h-300v-300zM200 600h300v300h-300v-300zM600 600h300v300 h-300v-300zM1000 600h300v300h-300v-300zM1400 600h300v300h-300v-300zM1800 600h300v300h-300v-300zM200 200h300v300h-300v-300zM600 200h300v300h-300v-300zM1000 200h300v300h-300v-300zM1400 200h300v300h-300v-300zM1800 200h300v300h-300v-300z" />
<glyph unicode="&#xe047;" d="M-22 1343q-21 0 -35 14q-115 117 -179 270t-64 323q0 151 51 289.5t145 250.5q13 17 34 17q20 0 34 -14l71 -71q15 -15 15 -38q0 -20 -12 -36q-138 -176 -138 -398q0 -129 48.5 -245.5t135.5 -206.5q15 -15 15 -36q0 -20 -14 -34l-71 -70q-15 -15 -36 -15zM1122 1343 q-21 0 -36 15l-71 70q-14 14 -14 34q0 21 15 36q87 90 135.5 206.5t48.5 245.5q0 222 -138 398q-12 16 -12 36q0 23 15 38l71 71q14 14 34 14q21 0 34 -17q94 -112 145 -250.5t51 -289.5q0 -114 -29.5 -222t-83.5 -200.5t-130 -170.5q-14 -14 -35 -14zM304 1670 q-21 0 -34 14q-108 113 -108 266q0 114 64 211q12 18 33 18q18 0 32 -14l71 -70q17 -18 17 -48q0 -16 -6 -32q-11 -31 -11 -65q0 -72 48 -126q16 -17 16 -37q0 -18 -13 -31l-71 -71q-16 -15 -38 -15zM796 1670q-22 0 -38 15l-71 71q-13 13 -13 31q0 20 16 37q49 54 49 126 q0 34 -12 65q-6 16 -6 32q0 30 17 48l71 70q14 14 32 14q21 0 33 -18q65 -97 65 -211q0 -153 -109 -266q-13 -14 -34 -14zM200 0v100q-82 0 -141 59t-59 141v300q0 41 29.5 70.5t70.5 29.5h300v500l100 400v400l0.5 1.5t0.5 4.5t0.5 6.5t2 7.5t4 8t6.5 8t8.5 6.5t12 4 t15.5 1.5q11 0 19.5 -2.5t13.5 -6.5t8.5 -9.5t5 -10.5t2 -9.5t1 -7l0.5 -2.5v-400l100 -400v-500h1600q41 0 70.5 -29.5t29.5 -70.5v-300q0 -82 -58.5 -141t-141.5 -59v-100h-2000zM1900 300h200v200h-200v-200z" />
<glyph unicode="&#xe048;" d="M1583 0q-116 0 -199.5 83t-83.5 200v417h-100q0 -41 -29.5 -70.5t-70.5 -29.5h-900q-41 0 -70.5 29.5t-29.5 70.5v700q0 41 29.5 70.5t70.5 29.5h900q41 0 70.5 -29.5t29.5 -70.5h100v134q-100 143 -100 316q0 112 43.5 214t117 175.5t175.5 117t214 43.5 q149 0 276 -73.5t200.5 -200.5t73.5 -276q0 -174 -100 -316v-1251q0 -117 -83.5 -200t-199.5 -83h-334zM1750 1500q95 0 175.5 47t127.5 127.5t47 175.5t-47 175.5t-127.5 127.5t-175.5 47t-175.5 -47t-127.5 -127.5t-47 -175.5t47 -175.5t127.5 -127.5t175.5 -47z M1750 1600q-64 0 -119 30t-89 82t-40 115q47 -27 99 -27q54 0 100 26.5t72.5 72.5t26.5 100q0 52 -27 99q96 -9 161.5 -80t65.5 -168q0 -104 -73 -177t-177 -73zM1500 400h100v100h-100v-100zM1700 400h100v100h-100v-100zM1900 400h100v100h-100v-100zM1600 200h100v100 h-100v-100zM1800 200h100v100h-100v-100z" />
<glyph unicode="&#xe049;" d="M2491 1500l-765 -541l291 -885l-768 551l-764 -554l291 883l-776 546h958l294 900h3l292 -900h944zM1249 872l389 -283l-147 447l379 264h-468l-149 459l-150 -459h-479l387 -268l-145 -437zM484 68h-3l4 3z" />
<glyph unicode="&#xe050;" d="M2491 1500l-765 -541l291 -885l-768 551l-764 -554l291 883l-776 546h958l294 900h3l292 -900h944zM484 68h-3l4 3z" />
<glyph unicode="&#xe051;" d="M1039 798l-281 282l-1 1q-68 68 -103 152.5t-35 172.5q0 83 31 160t92 137l525 525q60 60 137 91.5t159 31.5q89 0 173.5 -35.5t152.5 -104.5l164 -164q72 -72 109.5 -160.5t37.5 -179.5q0 -54 -13 -105.5t-40 -99.5t-67 -87l-213 -214q-44 151 -156 269l157 157 q31 31 31 78q0 34 -16 69t-42 61l-164 164q-52 53 -114 53q-48 0 -84 -36l-525 -525q-36 -36 -36 -84q0 -62 51 -113l2 -3l281 -280zM1096 218q-59 -58 -134.5 -88t-158.5 -30q-92 0 -181 37t-160 107l-164 164q-45 46 -76.5 100t-47 111t-15.5 115q0 83 31.5 160t92.5 138 l209 209q45 -151 159 -266l-156 -156q-36 -36 -36 -84q0 -63 51 -115l164 -164q18 -17 39 -30t44.5 -20t46.5 -7q48 0 80 31l524 525q31 31 31 79q0 34 -15.5 68.5t-41.5 61.5l-272 271l212 212l2 -1l270 -270q72 -72 109 -160.5t37 -180.5q0 -82 -30 -157.5t-90 -134.5z " />
<glyph unicode="&#xe052;" d="M1234.5 404q-125.5 0 -256 25.5t-246 69t-229.5 99.5t-209.5 118t-182 123.5t-152 117.5t-113.5 99.5t-73 68.5l-25 26q6 11 18.5 31t56 81t92.5 120t129 139t165.5 149t202 139t238.5 119.5t274.5 81t310.5 31.5t309.5 -30.5t275 -82t238 -118.5t203 -141t165 -147.5 t130 -140.5t91.5 -118.5t56 -82.5l19 -30l-26.5 -26.5t-71.5 -67.5t-114.5 -100.5t-151 -116.5t-183 -125t-208 -117t-230.5 -100.5t-245.5 -67.5t-257 -26zM1235 697q97 0 188.5 30t165 85.5t128.5 129t85.5 164.5t30.5 189q0 131 -56 252q-160 54 -316 78q80 -55 127 -142 t47 -188q0 -109 -53.5 -201.5t-145.5 -146t-201 -53.5q-82 0 -156 31.5t-128 85.5t-85.5 128t-31.5 156q0 101 47 187.5t127 142.5q-154 -25 -318 -84q-54 -118 -54 -246q0 -122 47.5 -232.5t127.5 -191t191 -127.5t233 -47zM1800 724q112 45 222.5 104.5t198 119t152 109.5 t112.5 94q-45 41 -109.5 88t-158.5 103t-194 104q15 -78 15 -151q0 -165 -63 -312.5t-175 -258.5zM660 735q-108 110 -168 254.5t-60 305.5q0 66 12 139q-130 -67 -238 -142.5t-178 -140.5q38 -35 80 -70t105.5 -83t129 -91t149.5 -89.5t168 -82.5zM1074 1041l74 73 q-30 15 -53 38t-38 53t-19 63l-81 -81q37 -95 117 -146z" />
<glyph unicode="&#xe053;" d="M864 0l166 432q-112 17 -228 53t-217 83t-200 102.5t-181 112.5t-156 113t-130 105t-96.5 86.5t-61.5 59.5l-21 22q6 11 18.5 30.5t56 80.5t92.5 119.5t129 138.5t166 149t202 139t238 119.5t274.5 80.5t310.5 31q195 0 417 -61l162 404h249l-939 -2400h-251zM1431 442 l155 395q110 84 174 209t64 268q0 49 -10 106l173 443q134 -73 258.5 -171.5t205.5 -186.5t143 -165.5t91 -122.5l28 -46l-35.5 -35.5t-97 -89t-154 -128.5t-199 -141.5t-238.5 -142t-267.5 -116t-290.5 -76.5zM1140 723l76 192q-80 2 -152.5 34.5t-124.5 85.5t-83 126 t-31 153q0 101 47 188t127 142q-154 -24 -318 -83q-53 -118 -53 -247q0 -148 67.5 -276.5t184.5 -211t260 -103.5zM1791 744q112 45 222.5 104.5t198 119t152 109.5t112.5 94q-71 65 -193 144.5t-269 150.5q15 -79 15 -152q0 -164 -63 -311.5t-175 -258.5zM651 754 q-71 73 -122 161t-78.5 190t-27.5 209q0 67 13 140q-130 -68 -238 -143.5t-179 -139.5q50 -45 107 -91.5t138.5 -105.5t182.5 -117t204 -103zM1066 1061l73 73q-45 22 -74 62.5t-36 91.5l-81 -81q37 -95 118 -146z" />
<glyph unicode="&#xe054;" d="M53 1722l-150 175q-35 42 -35 97q0 72 54 117l420 359q40 34 96 34q36 0 69.5 -15t55.5 -42l147 -172q-206 -81 -374.5 -223.5t-282.5 -329.5zM2351 1714q-75 125 -175 231t-221 189t-257 137l145 174q22 27 56 42.5t70 15.5q55 0 95 -33l423 -355q55 -46 55 -118 q0 -54 -35 -96zM1200 0q-149 0 -291.5 39.5t-263.5 110.5t-222.5 172.5t-172.5 222.5t-110.5 263.5t-39.5 291.5q0 128 29 251.5t83.5 232t129.5 204t170.5 170.5t204 129.5t232 83.5t251.5 29t251.5 -29t232 -83.5t204 -129.5t170.5 -170.5t129.5 -204t83.5 -232t29 -251.5 q0 -149 -39.5 -291.5t-110.5 -263.5t-172.5 -222.5t-222.5 -172.5t-263.5 -110.5t-291.5 -39.5zM1200 300q162 0 310.5 63.5t255.5 170.5t170.5 255.5t63.5 310.5t-63.5 310.5t-170.5 255.5t-255.5 170.5t-310.5 63.5q-109 0 -212.5 -29t-191 -80.5t-161.5 -125.5 t-125.5 -161.5t-80.5 -191t-29 -212.5q0 -162 63.5 -310.5t170.5 -255.5t255.5 -170.5t310.5 -63.5zM1200 900q-54 0 -100 27t-72 73h-178q-21 0 -35.5 14.5t-14.5 35.5v95q0 21 15 38t35 17h178q26 46 72 72v376q0 21 15 36.5t35 15.5h98q21 0 36.5 -15.5t15.5 -36.5v-376 q46 -26 73 -72t27 -100q0 -83 -58.5 -141.5t-141.5 -58.5z" />
<glyph unicode="&#xe055;" d="M1200 0q-163 0 -318.5 43t-287 120.5t-242.5 188.5t-188.5 242.5t-120.5 287t-43 318.5t43 318.5t120.5 287t188.5 242.5t242.5 188.5t287 120.5t318.5 43t318.5 -43t287 -120.5t242.5 -188.5t188.5 -242.5t120.5 -287t43 -318.5t-43 -318.5t-120.5 -287t-188.5 -242.5 t-242.5 -188.5t-287 -120.5t-318.5 -43zM1200 300q183 0 349.5 71.5t287 192t192 287t71.5 349.5t-71.5 349.5t-192 287t-287 192t-349.5 71.5t-349.5 -71.5t-287 -192t-192 -287t-71.5 -349.5t71.5 -349.5t192 -287t287 -192t349.5 -71.5zM1200 1000q-36 0 -69.5 12.5 t-59.5 35t-43 52.5h-278q-21 0 -35.5 14.5t-14.5 35.5v95q0 21 15 38t35 17h278q26 46 72 72v476q0 21 15 36.5t35 15.5h98q14 0 26 -7t19 -19t7 -26v-476q46 -26 73 -72t27 -100q0 -83 -58.5 -141.5t-141.5 -58.5z" />
<glyph unicode="&#xe056;" d="M1000 2400v247q0 21 15 37t35 16h300q20 0 35 -16t15 -37v-247q-79 9 -200 9t-200 -9zM2214 1886q-48 61 -99 112.5t-113 99.5l148 148q15 15 35.5 15t35.5 -15l141 -141q15 -15 15 -35.5t-15 -35.5zM1200 13q-149 0 -291.5 40t-263.5 111t-222.5 172.5t-172.5 222 t-110.5 263t-39.5 291.5q0 129 29 252.5t83.5 231.5t129.5 203.5t170.5 171t204 130t232 83t251.5 28.5t251.5 -28.5t232 -83t204 -130t170.5 -171t129.5 -203.5t83.5 -231.5t29 -252.5q0 -149 -39.5 -291.5t-110.5 -263t-172.5 -222t-222.5 -172.5t-263.5 -111t-291.5 -40z M1200 313q162 0 310.5 63.5t255.5 171t170.5 255.5t63.5 310.5t-63.5 310.5t-170.5 255.5t-255.5 170.5t-310.5 63q-109 0 -212.5 -28.5t-191 -80t-161.5 -125.5t-125.5 -162t-80.5 -191.5t-29 -212.5q0 -162 63.5 -310t170.5 -255.5t255.5 -171t310.5 -63.5zM1150 900 q-10 0 -19.5 4.5t-16 11.5t-10.5 16.5t-4 19.5v89q-46 27 -73 72.5t-27 100t27 100t73 72.5v364q0 21 14.5 35.5t35.5 14.5h100q21 0 35.5 -14.5t14.5 -35.5v-364q46 -27 73 -72.5t27 -100t-27 -100t-73 -72.5v-89q0 -21 -15 -36.5t-35 -15.5h-100z" />
<glyph unicode="&#xe057;" d="M1800 2297v378q0 10 7.5 17.5t17.5 7.5h50q10 0 17.5 -7.5t7.5 -17.5v-378q-12 1 -50 1t-50 -1zM1511 2218l-256 256q-7 7 -7 17.5t7 17.5l36 35q7 8 17.5 8t17.5 -8l284 -284q-50 -17 -99 -42zM2189 2218q-49 25 -99 42l284 284q7 8 17.5 8t17.5 -8l36 -35q7 -7 7 -17.5 t-7 -17.5zM250 200l-150 100v100q-82 0 -141 59t-59 141v1100q0 82 59 141t141 59h1282q90 94 211 147t257 53q91 0 177.5 -25t160 -69.5t132.5 -107.5q76 -8 128 -64.5t52 -133.5v-1100q0 -82 -59 -141t-141 -59v-100l-150 -100l-150 100v100h-1600v-100zM1025 2000 q-10 0 -17.5 7.5t-7.5 17.5v50q0 10 7.5 17.5t17.5 7.5h316q-50 -46 -90 -100h-226zM2449 2000q-40 54 -90 100h316q10 0 17.5 -7.5t7.5 -17.5v-50q0 -10 -7.5 -17.5t-17.5 -7.5h-226zM1849.5 1010q89.5 0 171 35t140.5 94t94 140t35 171t-35 171t-94 140t-140.5 94t-171 35 t-170.5 -35t-140 -94t-94 -140t-35 -171t35 -171t94 -140t140 -94t170.5 -35zM1850 1110q-92 0 -170.5 45.5t-124 124t-45.5 170.5q0 61 24 122q12 -19 30 -32.5t40 -21.5t46 -8q58 0 99 41t41 99q0 36 -17 66.5t-45 49.5q61 24 122 24q92 0 170.5 -45.5t124 -124 t45.5 -170.5q0 -69 -27 -132t-72.5 -108.5t-108.5 -72.5t-132 -27zM228 1400h872v100h-700q-54 0 -99.5 -27t-72.5 -73zM200 1200h900v100h-900v-100zM200 1000h900v100h-900v-100zM400 800h700v100h-872q13 -22 31.5 -40.5t40 -31.5t47.5 -20.5t53 -7.5z" />
<glyph unicode="&#xe058;" d="M2006 -1l-148 205l-5 -4q-146 -95 -320.5 -145.5t-332.5 -50.5q-172 0 -331.5 43t-291 120.5t-240 188t-183 242.5t-115 286.5t-40.5 318.5q0 123 24.5 241.5t70 225t111 204t146 178t178 146t203.5 111t225 70t242 24.5q140 0 274.5 -31.5t252.5 -91t222.5 -142 t186.5 -186.5t141.5 -222.5t91 -253t31.5 -274.5q0 -25 -1.5 -48t-4 -40t-7 -51.5t-7.5 -62.5h-304q4 25 10 62t8 52.5t4 39t2 48.5q0 105 -23.5 206t-68 190t-106 167.5t-139.5 140t-166.5 106t-190 68.5t-206.5 24t-206 -24t-189.5 -68t-167 -105.5t-140 -140t-105.5 -167 t-68 -189.5t-24 -206q0 -123 32.5 -239.5t90 -215t140.5 -181.5t182 -141t216 -90.5t240 -32.5q99 1 181.5 17t153 46.5t148.5 79.5l-152 212q-8 11 -8 21q0 20 29 19h684q16 0 26.5 -10t10.5 -25q0 -7 -2 -13l-221 -644q-6 -23 -21 -23q-12 0 -23 15zM1200 999 q-27 0 -53.5 8.5t-48.5 23t-40 32t-32 37.5h-276q-20 0 -35 15.5t-15 36.5v96q0 20 15 36t35 16h276q29 42 75.5 71.5t98.5 29.5q22 0 57 -10l324 324q14 14 35 14t35 -14l70 -70q14 -15 14 -35.5t-14 -35.5l-327 -327q6 -26 6 -48q0 -54 -26.5 -100t-73 -73t-100.5 -27z " />
<glyph unicode="&#xe059;" d="M50 -99q-21 0 -35.5 14.5t-14.5 35.5v1150h-250q-21 0 -35.5 14.5t-14.5 35.5v50q-41 0 -70.5 29t-29.5 70v500q0 42 29.5 71.5t70.5 29.5v50q0 21 14.5 35.5t35.5 14.5h250v58q0 31 13 58.5t35.5 47t51.5 28.5v408h2200v-408q21 -7 39.5 -20t32 -30t21 -39t7.5 -45v-58 h250q21 0 35.5 -14.5t14.5 -35.5v-50q41 0 70.5 -29.5t29.5 -71.5v-500q0 -41 -29.5 -70t-70.5 -29v-50q0 -21 -14.5 -35.5t-35.5 -14.5h-250v-1150q0 -21 -14.5 -35.5t-35.5 -14.5h-200q-21 0 -35.5 14.5t-14.5 35.5v150h-1800v-150q0 -21 -14.5 -35.5t-35.5 -14.5h-200z M-200 1201h200v700h-200q41 0 70.5 -29.5t29.5 -71.5v-500q0 -41 -29.5 -70t-70.5 -29zM1200 1190q178 0 342 12.5t270 30.5t187 36t117 31l37 12q19 7 33 26.5t14 40.5v471q0 21 -14.5 36t-35.5 15h-1900q-10 0 -19.5 -4t-16 -11t-10.5 -16.5t-4 -19.5v-471q0 -21 14 -40.5 t33 -26.5q13 -5 38 -13t114 -29t190.5 -37.5t267 -29.5t343.5 -13zM2400 1201h200q-27 0 -50 13t-36.5 36t-13.5 50v500q0 42 29.5 71.5t70.5 29.5h-200v-700zM200 601h400v199l-500 100v-210zM1800 601h400l100 89v210l-500 -100v-199zM300 401h300v100h-300v-100z M1800 401h300v100h-300v-100zM900 201h600v200h-600v-200z" />
<glyph unicode="&#xe060;" d="M400 2400l166 166q16 16 27.5 23t23.5 9t34 2h16h19h614l-200 -200h-700zM2000 2200v102q0 50 -22.5 74t-77.5 24h-600l200 200h600q56 0 78 -22.5t22 -77.5v-100zM100 1900v130q0 38 7.5 61.5t34.5 50.5l158 158h700q-108 -110 -155 -155q-17 -16 -26.5 -29t-13.5 -28.5 t-4.5 -24.5t-0.5 -32v-131h-700zM1000 1900v131q0 28 1.5 40t11.5 32t32 42l155 155h645q55 0 55 -53v-147l-200 -200h-700zM2000 1700v400l200 200v-400zM1000 1400v400h700l200 200v-400l-200 -200h-700zM100 1400v400h700v-400h-700zM2000 1200v400l200 200v-400z M1000 900v400h700l200 200v-400l-200 -200h-700zM100 900v400h700v-400h-700zM2000 800v300l200 200v-300zM-100 0v400h1900l600 600v-400l-100 -100v100l-100 -100v-100l-200 -200v100l-100 -100v-100l-100 -100h-400v100h-300v-100h-400v100h-300v-100h-500zM1000 500v300 h700l200 200v-300l-200 -200h-700zM100 500v300h700v-300h-700z" />
<glyph unicode="&#xe061;" d="M1200 0q-163 0 -318.5 43t-287 120.5t-242.5 188.5t-188.5 242.5t-120.5 287t-43 318.5t43 318.5t120.5 287t188.5 242.5t242.5 188.5t287 120.5t318.5 43t318.5 -43t287 -120.5t242.5 -188.5t188.5 -242.5t120.5 -287t43 -318.5t-43 -318.5t-120.5 -287t-188.5 -242.5 t-242.5 -188.5t-287 -120.5t-318.5 -43zM1200 300q105 0 206 23.5t189.5 68t167 106t140 140t106 167t68 189.5t23.5 206q0 122 -32.5 238.5t-90.5 215.5t-141 182t-182 141t-215.5 90.5t-238.5 32.5t-238.5 -32.5t-215.5 -90.5t-182 -141t-141 -182t-90.5 -215.5 t-32.5 -238.5q0 -74 12 -146t34 -138.5t54.5 -129t73 -118t90 -105t105 -90t118 -73t129 -54.5t138.5 -34t146 -12zM680 655q-10 -4 -17 -4q-12 0 -12 12q0 7 4 17l312 687q4 9 11.5 19t16.5 19t19 16.5t19 11.5l687 312q10 4 17 4q13 0 13 -12q0 -7 -5 -17l-312 -687 q-9 -18 -28.5 -37.5t-37.5 -28.5zM1116.5 1116.5q34.5 -34.5 83.5 -34.5t83.5 34.5t34.5 83.5t-34.5 83.5t-83.5 34.5t-83 -35q-35 -34 -35 -83t34.5 -83.5z" />
<glyph unicode="&#xe062;" d="M2000 2200l150 -900h-1900l150 900h50q0 413 185 489q37 16 80 16q114 0 245 -104l40 40l191 -191l-141 -141l-191 191l30 30q-98 75 -174 75q-23 0 -42 -8q-40 -17 -67.5 -68t-41.5 -134.5t-14 -194.5h1450zM2200 1000h-900v-415q175 -37 287.5 -143t112.5 -242 q0 -109 -73.5 -201t-200.5 -145.5t-276 -53.5t-276 53.5t-200.5 145.5t-73.5 201q0 136 112.5 242t287.5 143v415h-800v200h2000v-200z" />
<glyph unicode="&#xe063;" d="M1208 93q-17 0 -40.5 21t-51 54.5t-32.5 37.5q-7 8 -7 18.5t7 17.5l513 513t504 503q182 183 198 389q1 19 1 39q0 121 -52.5 228.5t-147.5 181.5t-216 96q-48 9 -95 9q-49 0 -96.5 -10.5t-86 -24.5t-83.5 -42.5t-75 -50t-74.5 -62t-68.5 -64t-69 -69.5l-31 -31 l-663 -663q-26 -26 -77.5 -73.5t-88 -81.5t-81.5 -85t-73.5 -94.5t-48 -98t-19.5 -108.5q0 -21 3 -43q12 -83 59 -143t112 -88.5t140 -28.5q46 0 90 11.5t86.5 35t76.5 57.5q63 64 136 136l361 361l289 289l341 341q49 50 49 107q0 33 -16 61t-43.5 44.5t-59.5 16.5 q-55 0 -103 -48q-15 -13 -31.5 -29t-29 -29t-29.5 -31t-28 -30q-619 -618 -631 -630q-2 -2 -19.5 -22t-32 -31.5t-27.5 -11.5q-10 0 -18 8q-12 12 -26 26.5t-25.5 25.5t-26.5 26l-26 26q-7 7 -7 17.5t7 18.5q46 46 172.5 174t241.5 244.5t230 231t160 155.5q120 110 261 110 q31 0 61 -6q79 -15 135.5 -62t83.5 -110t27 -136q0 -46 -11.5 -90.5t-35 -87t-57.5 -76.5q-38 -37 -136 -136q-121 -120 -342.5 -341.5t-307.5 -308.5q-38 -38 -111.5 -118t-124 -132.5t-124 -112.5t-140.5 -92q-112 -55 -237 -55q-135 0 -253 62.5t-189 178.5 q-74 121 -74 267q0 111 43 215.5t123 184.5l1055 1055q52 53 72.5 73t65 56.5t83.5 60.5q180 110 393 110q161 0 302 -66q131 -60 223 -163t136 -225.5t44 -256.5q0 -150 -56.5 -291.5t-165.5 -250.5l-1031 -1031q-1 -2 -4 -5l-5 -5t-5 -4.5t-6 -4.5t-6 -3t-7 -1z" />
<glyph unicode="&#xe064;" d="M1100 1400q-41 0 -70.5 29.5t-29.5 70.5v800q0 41 29.5 70.5t70.5 29.5h200q41 0 70.5 -29.5t29.5 -70.5v-800q0 -41 -29.5 -70.5t-70.5 -29.5h-200zM1200 50q-143 0 -279 38t-251 105.5t-212 164.5t-164.5 212t-105.5 251t-38 279q0 282 139 521.5t374 379.5 q52 34 87 34q50 0 50 -68v-176q0 -29 -8 -49t-16.5 -27.5t-24 -17t-18.5 -11.5q-132 -106 -207.5 -259t-75.5 -327q0 -152 59.5 -291t160 -239.5t239.5 -160t291 -59.5t291 59.5t239.5 160t160 239.5t59.5 291q0 174 -75 326t-205 257q-4 3 -16 11t-19 14.5t-16.5 18 t-14 27.5t-4.5 36v183q0 60 49 60q34 0 80 -27q238 -139 379.5 -380t141.5 -526q0 -122 -27.5 -240t-79.5 -221.5t-124 -194.5t-163 -163t-194.5 -124t-221.5 -79.5t-240 -27.5z" />
<glyph unicode="&#xe065;" d="M955 -59q-20 0 -34 15t-14 35v50q-12 8 -28.5 21t-44 40t-27.5 39v117q-64 68 -64 183q0 41 -4 79t-13.5 73.5t-18.5 64t-26.5 62t-30 55.5t-36.5 56t-38 52.5t-41 54.5q-34 43 -51 66.5t-47.5 68.5t-47.5 77.5t-39 81.5t-33 93.5t-19.5 101t-8.5 114.5q0 197 68 367.5 t187 291.5t288 190t366 69q1 0 4 -0.5t5 -0.5v1q196 0 364.5 -69t287 -190t185.5 -291.5t67 -367.5q0 -58 -8.5 -115t-20 -100.5t-34 -93.5t-39 -81t-48 -77.5t-47.5 -68.5t-51 -67q-32 -42 -47.5 -62.5t-42.5 -60t-40 -65t-31.5 -65t-27 -74t-15 -79t-6.5 -91.5 q0 -100 -46 -166v-134q0 -7 -10.5 -20.5t-25 -26.5t-29.5 -25l-25 -20l-10 -8v-50q0 -20 -15.5 -35t-36.5 -15h-500zM943 441h514q0 54 5 104t17 95.5t24.5 83.5t33.5 79t37 70t42.5 67t43 60t44.5 59q5 7 14 19q35 45 52 68.5t45 65t42 73t30 74t22.5 87.5t6.5 95 q0 156 -55 290t-149.5 227.5t-225.5 147t-279 53.5q-157 0 -290.5 -53t-227.5 -147t-147 -227.5t-53 -290.5q0 -52 7 -98.5t23 -90.5t30.5 -77t43 -76t46.5 -67.5t55 -72.5q33 -44 51 -67.5t48.5 -69.5t48 -79t39.5 -83.5t33.5 -96t20 -103.5t8.5 -119z" />
<glyph unicode="&#xe066;" d="M1375 36l-1339 1339q-10 9 -18 24t-13 31.5t-5 29.5v890q0 21 15 35.5t35 14.5h890q21 0 46 -10.5t40 -24.5l1339 -1339q14 -15 14 -35.5t-14 -35.5l-920 -919q-14 -15 -35 -15t-35 15zM358.5 1758.5q58.5 -58.5 141.5 -58.5t141.5 58.5t58.5 141.5t-58.5 141.5 t-141.5 58.5t-141.5 -58.5t-58.5 -141.5t58.5 -141.5z" />
<glyph unicode="&#xe067;" d="M1074 36l-1339 1339q-14 14 -24.5 39.5t-10.5 45.5v890q0 10 4 19.5t10.5 16t16 10.5t19.5 4h890q21 0 46 -10.5t39 -24.5l1339 -1339q15 -15 15 -35.5t-15 -35.5l-919 -919q-15 -15 -35.5 -15t-35.5 15zM1741 32q-11 -11 -27 -11q-25 0 -44 19l-160 161l720 719 q38 38 38 71q0 32 -38 70l-1341 1339h301q23 0 59 -5.5t47 -12.5q29 -17 65 -53l1268 -1268q29 -29 29 -71q0 -41 -29 -70zM59 1759q58 -59 141 -59t141.5 58.5t58.5 141.5t-58.5 141.5t-141.5 58.5t-141 -59q-59 -58 -59 -141t59 -141z" />
<glyph unicode="&#xe068;" d="M1400 500v125q0 41 17 58t58 17h325v1625q0 41 29.5 70.5t70.5 29.5t70.5 -29.5t29.5 -70.5v-1625h275q49 0 87 -18.5t38 -56.5v-125h-1000zM130 1416q10 98 54.5 186t113 151t160.5 100.5t192 37.5q134 0 249 -63t186.5 -172t84.5 -240h-150q-19 138 -124 231.5 t-246 93.5t-246 -93.5t-124 -231.5h-150zM407 0q-57 0 -104.5 44t-56.5 105l-148 957h-48q-21 0 -35.5 14.5t-14.5 35.5v81q0 21 14.5 35.5t35.5 14.5h1200q21 0 35.5 -14.5t14.5 -35.5v-81q0 -21 -14.5 -35.5t-35.5 -14.5h-48l-148 -957q-9 -61 -56.5 -105t-104.5 -44h-486 zM1300 0l100 400h1000l100 -400h-1200z" />
<glyph unicode="&#xe069;" d="M-50 400q-21 0 -35.5 14.5t-14.5 35.5v1350h100v-1000h100v1000h100v-600h100v600h100v-600h100v600h100v-600h100v600h100v-600h100v600h100v-1000h100v1000h100v-600h100v600h100v-600h100v600h100v-600h100v600h100v-600h100v600h100v-1000h100v1000h100v-600h100v600 h100v-600h100v600h100v-1350q0 -21 -14.5 -35.5t-35.5 -14.5h-2600z" />
<glyph unicode="&#xe070;" d="M200 1200v300h-150q-14 0 -25 4.5t-18 14t-7 23.5v295q0 22 15 42.5t35 20.5h160q-6 0 29 175.5t47 228.5q22 76 84 124.5t139 48.5q31 0 61 -9q25 -7 52 -19t61.5 -29.5t49.5 -24.5q71 -32 201 -91t173 -79q47 -27 80 -71q32 43 79 70q40 19 166 76.5t194 88.5 q17 7 68.5 32t79.5 37q44 18 91 18q77 0 139.5 -47.5t83.5 -125.5q15 -64 49 -233.5t28 -169.5h185q20 0 35 -20.5t15 -42.5v-295q0 -20 -14 -31t-36 -11h-150v-300h-800v700h-400v-700h-800zM1428 1900h493q9 0 15 10t3 19l-63 291l-461 -279zM475 1900h494l14 40l-461 277 l-63 -289q-1 -3 -1 -6q0 -4 1.5 -8t3.5 -7t5.5 -5t6.5 -2zM200 0v800h800v-800h-800zM1400 0v800h800v-800h-800z" />
<glyph unicode="&#xe071;" d="M-100 1028q0 176 42.5 345.5t119 315.5t187 271.5t242 216.5t288 148t321.5 69v105q0 41 29.5 70.5t70.5 29.5t70.5 -29.5t29.5 -70.5v-105q165 -12 321.5 -69t288 -148t242 -216.5t187 -271.5t119 -315.5t42.5 -345.5h-4q-137 269 -442 269q-86 0 -164.5 -22.5 t-145.5 -67.5t-117 -110q-52 66 -117.5 115t-145.5 77.5t-164 28.5q-123 0 -234.5 -63.5t-192.5 -167.5q-77 100 -188.5 156t-237.5 56q-70 0 -132 -14.5t-119 -45.5t-105.5 -84.5t-85.5 -126.5h-5zM891 -200q-179 0 -285 107.5t-106 291.5v49q0 21 14.5 35.5t35.5 15.5h100 q14 0 25.5 -7t18 -18.5t6.5 -25.5v-49q0 -38 9.5 -71t31 -63t62.5 -47.5t97 -17.5q41 0 73.5 9.5t53 23.5t35.5 35t22 38t11 39t4.5 32t0.5 22v880q0 2 14 7t38.5 9t47.5 4t47.5 -4t38.5 -9t14 -7v-880q0 -60 -15 -116.5t-48 -108t-80 -90t-115.5 -61.5t-150.5 -23z" />
<glyph unicode="&#xe072;" d="M100 0v2025l350 375h1450q73 0 146.5 -34.5t129 -90t90 -129t34.5 -146.5v-1500l-200 -200v1600q0 300 -300 300h-1227l-200 -200h1227q124 0 212 -88t88 -212v-1400q0 -124 -88 -212t-212 -88h-1500z" />
<glyph unicode="&#xe073;" d="M547 47q-10 -11 -23 -11q-10 0 -17 7t-7 19v2288q0 21 14.5 35.5t35.5 14.5h1400q21 0 35.5 -14.5t14.5 -35.5v-2263q0 -13 -4 -22.5t-10.5 -13.5t-13.5 -4q-14 0 -25 11l-691 617z" />
<glyph unicode="&#xe074;" d="M2589 1406q-262 263 -608 409.5t-731 146.5q-383 0 -728 -145.5t-607 -407.5l-202 202q302 301 699 469t838 168q443 0 841 -169t700 -471zM2180 997q-89 90 -194.5 161.5t-223 121.5t-247.5 77t-265 27q-266 0 -505.5 -101t-420.5 -283l-214 214q224 223 518.5 347.5 t621.5 124.5q329 0 624.5 -125.5t519.5 -350.5zM1791 608q-70 70 -154.5 120t-183.5 77.5t-203 27.5q-154 0 -292.5 -58.5t-244.5 -163.5l-194 194q144 143 332.5 223t398.5 80q212 0 401.5 -81t333.5 -225zM1254 70l-345 346q33 32 71.5 58t81.5 44.5t91 28t97 9.5 q100 0 189 -38t156 -106z" />
<glyph unicode="&#xe075;" d="M800 0v300h100v100h122q78 92 78 200v95q-22 95 -92 206q-24 -1 -48 -1q-113 0 -220 25t-203 74t-177.5 125t-139.5 173q-29 49 -50.5 106.5t-34 128.5t-20.5 129t-11 147t-3.5 141t-0.5 151q0 41 29.5 70.5t70.5 29.5h300v200h1400v-200h300q41 0 70.5 -29.5t29.5 -70.5 q0 -123 -1.5 -217t-6.5 -170.5t-9.5 -129t-15.5 -98.5t-19 -73.5t-26 -59t-30.5 -49.5t-37.5 -51q-84 -109 -160 -174t-178 -106q-80 -33 -173 -56t-173 -23q-57 0 -99 13q-52 -95 -71 -191v-115q0 -108 78 -200h122v-100h100v-300h-800zM858 1109q-46 59 -70.5 91t-64 88 t-64.5 97t-53 95t-47 105q-27 70 -40 128t-16 102t-3 119v32v34h-203q-2 -150 -2 -161q0 -59 2.5 -104.5t9.5 -98t21 -97t35 -91t53 -91.5t75 -88q41 -33 66.5 -51t70 -42.5t100.5 -40t130 -26.5zM1507 1105q135 11 232 49.5t172 114.5q43 43 74 87t59.5 106.5t43.5 147.5 t15 190q0 25 -1 98.5t-1 101.5h-201q0 -23 0.5 -62t0.5 -55q0 -98 -15 -168t-64 -167q-26 -51 -55 -98t-65 -96.5t-60 -80t-70 -87.5t-65 -81z" />
<glyph unicode="&#xe076;" d="M1898 0q-132 0 -229.5 86t-115.5 214h-99l-378 405l-264 -204q36 -74 36 -150q0 -95 -47 -175.5t-127.5 -127t-175.5 -46.5q-94 0 -174.5 46.5t-127.5 127t-47 175.5t47 175.5t127.5 127t174.5 46.5q96 0 179 -51l261 201l-234 250h-256l-107 433l-318 84q-21 7 -37 21 t-25 32.5t-9 38.5q0 15 5 30q6 20 19 34t29.5 21t36.5 7q18 0 36 -6l370 -95l55 -100h832l-187 800h400l556 -200l344 -400l-344 -700h-1124l567 -600h36q43 90 127.5 145t187.5 55q145 0 247.5 -102.5t102.5 -247.5t-102.5 -247.5t-247.5 -102.5zM498 198q64 0 108.5 45 t44.5 108t-44.5 107.5t-108.5 44.5q-63 0 -107.5 -44.5t-44.5 -107.5t44.5 -108t107.5 -45zM1898 200q62 0 106 44t44 106t-44 106t-106 44t-106 -44t-44 -106t44 -106t106 -44z" />
<glyph unicode="&#xe077;" d="M50 500q-21 0 -35.5 14.5t-14.5 35.5v600q0 156 45 309t125 284.5t192.5 244t244 192.5t284.5 125t309 45t309 -45t284.5 -125t244 -192.5t192.5 -244t125 -284.5t45 -309v-600q0 -21 -14.5 -35.5t-35.5 -14.5h-100q-21 0 -35.5 14.5t-14.5 35.5v600q0 128 -38 248 t-105 218t-161 180t-204 137.5t-236 86t-256 30.5q-111 0 -220 -22t-207.5 -65t-186 -102.5t-158 -137t-121.5 -166t-79 -193t-28 -214.5v-600q0 -21 -14.5 -35.5t-35.5 -14.5h-100zM334 0q-34 0 -34 50v798q0 52 34 52h253q21 0 35.5 -15t14.5 -36q6 -17 14.5 -48.5 t22 -135.5t13.5 -215t-12.5 -211t-24.5 -145l-13 -44q0 -21 -14.5 -35.5t-35.5 -14.5h-253zM1813 0q-21 0 -35.5 14.5t-14.5 35.5q-6 17 -14.5 49t-22 136t-13.5 215t12.5 211t24.5 144l13 44q0 8 2.5 16t7 14t10.5 11t14 7.5t16 2.5h253q34 0 34 -52v-798q0 -50 -34 -50 h-253z" />
<glyph unicode="&#xe078;" d="M1200 -400q-54 0 -100 26.5t-73 72.5t-27 101q0 83 58.5 141.5t141.5 58.5h100q50 0 93 -23t71 -63q123 14 228.5 41t177 58.5t130.5 71t93 72.5t59 68.5t34 54t14 33.5v837q0 128 -38 248t-105 218t-161 180t-204 137.5t-236 86t-256 30.5q-111 0 -220 -22t-207.5 -65 t-186 -102.5t-158 -137t-121.5 -166t-79 -193t-28 -214.5v-600q0 -21 -14.5 -35.5t-35.5 -14.5h-100q-21 0 -35.5 14.5t-14.5 35.5v600q0 156 45 309t125 284.5t192.5 244t244 192.5t284.5 125t309 45t309 -45t284.5 -125t244 -192.5t192.5 -244t125 -284.5t45 -309l-2 -870 q-2 -8 -6 -22t-18.5 -47.5t-35 -67t-58.5 -78.5t-85 -85.5t-118 -83t-154.5 -76.5t-197.5 -62t-244 -42q-24 -53 -73 -84.5t-108 -31.5h-100zM334 0q-34 0 -34 50v798q0 52 34 52h253q21 0 35.5 -15t14.5 -36q6 -17 14.5 -48.5t22 -135.5t13.5 -215t-12.5 -211t-24.5 -145 l-13 -44q0 -21 -14.5 -35.5t-35.5 -14.5h-253zM1740 158q-27 214 -27 292q0 111 12.5 211t24.5 144l13 44q0 8 2.5 16t7 14t10.5 11t14 7.5t16 2.5h253q34 0 34 -52v-457q-67 -81 -151.5 -140t-208.5 -93z" />
<glyph unicode="&#xe079;" d="M12 0q-40 0 -75 20t-55 55t-20 75t20 75l1238 2095q20 35 55 55t75 20t75 -20t55 -55l1238 -2095q20 -35 20 -75t-20 -75t-55 -55t-75 -20h-2476zM271 300h1958l-979 1680zM1221 800q-14 0 -27.5 13.5t-16.5 29.5l-70 342q-7 36 -7 77v188q0 21 14.5 35.5t35.5 14.5h200 q14 0 25.5 -6.5t18 -18t6.5 -25.5v-188q0 -37 -7 -74l-68 -345q-3 -16 -16.5 -29.5t-28.5 -13.5h-59zM1137 400q-15 0 -26 11t-11 26v225q0 16 11 27t26 11h225q16 0 27 -11t11 -27v-225q0 -15 -11 -26t-27 -11h-225z" />
<glyph unicode="&#xe080;" d="M2000 0v2350q0 21 14.5 35.5t35.5 14.5h300q21 0 35.5 -14.5t14.5 -35.5v-2350h-400zM1500 0v1750q0 21 14.5 35.5t35.5 14.5h300q21 0 35.5 -14.5t14.5 -35.5v-1750h-400zM1000 0v1250q0 21 14.5 35.5t35.5 14.5h300q21 0 35.5 -14.5t14.5 -35.5v-1250h-400zM500 0v950 q0 21 14.5 35.5t35.5 14.5h300q21 0 35.5 -14.5t14.5 -35.5v-950h-400zM0 0v650q0 21 14.5 35.5t35.5 14.5h300q21 0 35.5 -14.5t14.5 -35.5v-650h-400z" />
<glyph unicode="&#xe081;" d="M2121 441l-390 520q-8 11 -8 20q0 19 28 19h249v600h-1163l-231 300h1644q21 0 35.5 -14.5t14.5 -35.5v-850h251q28 0 28 -19q0 -9 -8 -20l-390 -519q-13 -17 -31 -17q-17 0 -29 16zM150 400q-21 0 -35.5 14.5t-14.5 35.5v850h-249q-13 0 -20.5 8t-7.5 20q0 13 8 24 l390 526q15 19 34 19q16 0 26 -14l390 -532q8 -11 8 -23t-7.5 -20t-20.5 -8h-251v-600h1172l231 -300h-1653z" />
<glyph unicode="&#xe082;" d="M37 903q-38 148 -38 301q0 186 57 364.5t170 334.5q172 239 429.5 368t541.5 129q356 0 656 -196l6 -4l148 204q11 15 23 15q15 0 21 -22l193 -621q2 -7 2 -13q0 -8 -2.5 -14.5t-7.5 -11t-12 -7t-15 -2.5l-650 -12q-29 0 -29 20q0 9 8 20l145 200q-223 143 -487 143 q-140 0 -273 -42t-250.5 -126t-203.5 -204q-170 -235 -170 -525q0 -149 48 -291l-20 -3zM389 -4q-11 -15 -23 -15q-14 0 -21 22l-193 621q-2 7 -2 13q0 15 10 25t27 10l650 12q29 0 29 -20q0 -9 -8 -20l-145 -200q223 -144 486 -144q213 0 406 97t322 276q170 234 170 524 q0 147 -46 287l309 6q36 -145 36 -294q0 -92 -13.5 -182.5t-41.5 -179t-71 -174t-100 -163.5q-172 -239 -429.5 -368t-541.5 -129q-356 0 -656 196l-6 4z" />
<glyph unicode="&#xe083;" d="M294 1600q-36 -8 -50 -8q-19 0 -25 12.5t-5 45.5q21 592 23 609q4 42 26 42q15 0 37 -19l164 -136q190 148 418 211q157 43 317 43q238 0 457 -91t387 -257l-271 -159q-121 99 -268.5 153t-304.5 54q-120 0 -237 -32q-137 -38 -260 -120q143 -117 173 -142q23 -19 23 -37 t-27 -26q-19 -5 -147.5 -37t-263 -65.5t-166.5 -40.5zM1497 38l1 314q154 53 278.5 156.5t205.5 246.5q116 204 116 441q0 33 -2 66q-179 -78 -216 -92q-13 -5 -22 -5q-20 0 -20 24q0 10 3 23q18 74 52.5 222t63 269.5t29.5 124.5q6 26 25 26q10 0 23 -8q9 -5 118 -66.5 t246.5 -139t196.5 -110.5q21 -12 21 -30q0 -16 -16 -23l-215 -92q14 -93 14 -186q0 -317 -156 -593q-117 -204 -303.5 -351.5t-422.5 -211.5q-3 -1 -10 -2.5t-10 -2.5zM772 -183q-27 -14 -40 -14q-16 0 -16 24q0 6 1 15l37 245q-257 103 -446 310.5t-265 484.5 q-43 156 -43 315q0 161 43 316l271 -155q-14 -80 -14 -160q0 -121 32 -236q52 -190 175.5 -337t294.5 -231q21 151 31 207q7 35 26 35q14 0 35 -19q24 -23 212.5 -211t215.5 -217q25 -26 25 -40.5t-28 -31.5q-29 -17 -273 -151t-274 -149z" />
<glyph unicode="&#xe084;" d="M-145 500q-21 0 -38 14.5t-17 35.5v200q0 20 17 35t38 15h592l1200 1100h353v250q0 28 21 28q10 0 21 -8l522 -390q16 -12 16 -30t-16 -30l-522 -390q-11 -9 -21 -9q-9 0 -15 7.5t-6 21.5v250h-237l-1200 -1100h-708zM772 1302l-325 298h-592q-21 0 -38 14.5t-17 35.5 v200q0 10 4.5 19.5t12.5 16t18 10.5t20 4h708l431 -395zM2042 230q-11 -9 -21 -9q-6 0 -11 3.5t-7.5 10t-2.5 15.5v250h-353l-431 395l222 203l325 -298h237v250q0 13 6 20.5t15 7.5q10 0 21 -8l523 -390q16 -13 16 -30.5t-16 -29.5z" />
<glyph unicode="&#xe085;" d="M205 0q0 60 -5.5 112.5t-12 88.5t-21 79.5t-24.5 66.5t-29 67q-22 51 -34 79.5t-31 84.5t-28.5 104.5t-17 119t-7.5 148.5q0 96 9.5 176t30 149.5t35.5 108t43 102.5q24 55 36 85.5t27.5 83.5t22 112t6.5 133h-236q-29 0 -29 20q0 9 8 20l380 517q12 17 30 17t30 -16 l399 -518q8 -11 8 -21q0 -19 -28 -19h-262q0 -96 -9.5 -176t-30 -149.5t-35.5 -108t-43 -102.5q-24 -54 -36 -85t-27.5 -84t-22 -112t-6.5 -133t6.5 -133.5t22 -112t27.5 -83.5t36 -85q28 -64 43 -102.5t35.5 -108t30 -149.5t9.5 -176h-300zM1205 0q0 74 -6.5 133t-22 112 t-27.5 83.5t-36 85.5q-28 64 -43 102.5t-35.5 108t-30 149.5t-9.5 176t9.5 176t30 149.5t35.5 108t43 102.5q24 55 36 85.5t27.5 83.5t22 112t6.5 133h-236q-29 0 -29 20q0 9 8 20l380 517q12 17 30 17t30 -16l399 -518q8 -11 8 -21q0 -19 -28 -19h-262q0 -78 -7.5 -148.5 t-17 -119t-28.5 -104.5t-30.5 -84.5t-34.5 -79.5q-24 -54 -36 -85t-27.5 -84t-22 -112t-6.5 -133q0 -50 3 -93.5t10.5 -81.5t14 -66t19.5 -62.5t21 -54.5t24 -56q28 -64 43 -102.5t35.5 -108t30 -149.5t9.5 -176h-300zM2205 0q0 74 -6.5 133t-22 112t-27.5 83.5t-36 85.5 q-28 64 -43 102.5t-35.5 108t-30 149.5t-9.5 176t9.5 176t30 149.5t35.5 108t43 102.5q19 44 29 67t24.5 66.5t21 79.5t12 88.5t5.5 112.5h-236q-29 0 -29 20q0 9 8 20l380 517q12 17 30 17t30 -16l399 -518q8 -11 8 -21q0 -19 -28 -19h-262q0 -96 -9.5 -176t-30 -149.5 t-35.5 -108t-43 -102.5q-24 -54 -36 -85t-27.5 -84t-22 -112t-6.5 -133t6.5 -133t22 -112t27.5 -84t36 -85q28 -64 43 -102.5t35.5 -108t30 -149.5t9.5 -176h-300z" />
<glyph unicode="&#xe086;" d="M1210 -1q-234 0 -453.5 89t-391.5 261q-80 80 -142 172t-101 178.5t-64 178t-34.5 169t-9.5 153.5q0 183 56.5 365.5t169.5 337.5q172 239 429.5 368t541.5 129q356 0 656 -196l6 -4l148 204q11 15 23 15q15 0 21 -22l193 -621q2 -7 2 -13q0 -15 -10 -25t-27 -10 l-650 -12q-29 0 -29 20q0 9 8 20l145 200q-223 143 -487 143q-140 0 -272.5 -42t-250.5 -126t-204 -204q-170 -234 -169 -527q0 -175 68 -342.5t195 -294.5q65 -64 141 -114t157 -82.5t167 -49.5t172 -17q71 0 138.5 9.5t140 32t138.5 57t132.5 87t124.5 119.5 q15 17 55 71.5t58 81.5q19 28 59 28q35 0 66 -22l83 -56q24 -16 37.5 -38.5t13.5 -45.5q0 -19 -10 -34q-11 -16 -39 -54t-56.5 -75.5t-41.5 -53.5q-84 -101 -197 -181t-233 -128.5t-240 -73.5t-233 -25z" />
<glyph unicode="&#xe087;" d="M400 0v164q0 15 10.5 25.5t25.5 10.5h369q4 0 11 0.5t27 4.5t38.5 10.5t41 21.5t39 35.5t27.5 53.5t11 74v100h-1100q-41 0 -70.5 29.5t-29.5 70.5v1700q0 41 29.5 70.5t70.5 29.5h2600q41 0 70.5 -29.5t29.5 -70.5v-1700q0 -41 -29.5 -70.5t-70.5 -29.5h-1100v-100 q0 -41 11 -74t28.5 -53.5t39 -35.5t43 -21.5t39 -10.5t28.5 -5h11h365q14 0 24.5 -10.5t10.5 -25.5v-164h-1600zM0 800h2400v1400h-2400v-1400zM2300 600h100v100h-100v-100z" />
<glyph unicode="&#xe088;" d="M100 0v2025l350 375h1450q98 0 191 -58t151 -151t58 -191v-1500l-200 -200v1600q0 300 -300 300h-1227l-200 -200h1227q124 0 212 -88t88 -212v-1400q0 -124 -88 -212t-212 -88h-1500zM917 589q7 -7 16.5 -7t16.5 7l690 689q7 7 7 17t-7 17l-156 154q-7 6 -17 6t-17 -7 l-499 -499q-7 -7 -17 -7t-17 7l-186 186q-7 7 -17 7t-17 -7l-154 -155q-7 -7 -7 -17t7 -16z" />
<glyph unicode="&#xe089;" d="M100 0v2025l350 375h1450q98 0 191 -58t151 -151t58 -191v-1500l-200 -200v1600q0 300 -300 300h-1227l-200 -200h1227q124 0 212 -88t88 -212v-1400q0 -124 -88 -212t-212 -88h-1500zM617 680h766q15 0 26 11t11 26v61q0 28 -23 43l-244 155v41q20 8 35.5 27t23.5 40 t8 39v207q0 63 -33 115.5t-90 80.5q-46 24 -97 24q-52 0 -97 -24q-57 -28 -90 -80.5t-33 -115.5v-207q0 -29 19 -61.5t48 -44.5v-41l-244 -155q-23 -15 -23 -43v-61q0 -15 11 -26t26 -11z" />
<glyph unicode="&#xe090;" d="M100 0v100q0 41 29.5 70.5t70.5 29.5h100v2100q0 41 29.5 70.5t70.5 29.5h1700q41 0 70.5 -29.5t29.5 -70.5v-2100h100q41 0 70.5 -29.5t29.5 -70.5v-100h-900v375q0 10 -7.5 17.5t-17.5 7.5h-450q-10 0 -17.5 -7.5t-7.5 -17.5v-375h-900zM625 1800h250q10 0 17.5 7.5 t7.5 17.5v150q0 10 -7.5 17.5t-17.5 7.5h-250q-10 0 -17.5 -7.5t-7.5 -17.5v-150q0 -10 7.5 -17.5t17.5 -7.5zM1125 1800h250q10 0 17.5 7.5t7.5 17.5v150q0 10 -7.5 17.5t-17.5 7.5h-250q-10 0 -17.5 -7.5t-7.5 -17.5v-150q0 -10 7.5 -17.5t17.5 -7.5zM1625 1800h250 q10 0 17.5 7.5t7.5 17.5v150q0 10 -7.5 17.5t-17.5 7.5h-250q-10 0 -17.5 -7.5t-7.5 -17.5v-150q0 -10 7.5 -17.5t17.5 -7.5zM625 1400h250q10 0 17.5 7.5t7.5 17.5v150q0 10 -7.5 17.5t-17.5 7.5h-250q-10 0 -17.5 -7.5t-7.5 -17.5v-150q0 -10 7.5 -17.5t17.5 -7.5z M1125 1400h250q10 0 17.5 7.5t7.5 17.5v150q0 10 -7.5 17.5t-17.5 7.5h-250q-10 0 -17.5 -7.5t-7.5 -17.5v-150q0 -10 7.5 -17.5t17.5 -7.5zM1625 1400h250q10 0 17.5 7.5t7.5 17.5v150q0 10 -7.5 17.5t-17.5 7.5h-250q-10 0 -17.5 -7.5t-7.5 -17.5v-150q0 -10 7.5 -17.5 t17.5 -7.5zM625 1000h250q10 0 17.5 7.5t7.5 17.5v150q0 10 -7.5 17.5t-17.5 7.5h-250q-10 0 -17.5 -7.5t-7.5 -17.5v-150q0 -10 7.5 -17.5t17.5 -7.5zM1125 1000h250q10 0 17.5 7.5t7.5 17.5v150q0 10 -7.5 17.5t-17.5 7.5h-250q-10 0 -17.5 -7.5t-7.5 -17.5v-150 q0 -10 7.5 -17.5t17.5 -7.5zM1625 1000h250q10 0 17.5 7.5t7.5 17.5v150q0 10 -7.5 17.5t-17.5 7.5h-250q-10 0 -17.5 -7.5t-7.5 -17.5v-150q0 -10 7.5 -17.5t17.5 -7.5zM625 600h250q10 0 17.5 7.5t7.5 17.5v150q0 10 -7.5 17.5t-17.5 7.5h-250q-10 0 -17.5 -7.5 t-7.5 -17.5v-150q0 -10 7.5 -17.5t17.5 -7.5zM1125 600h250q10 0 17.5 7.5t7.5 17.5v150q0 10 -7.5 17.5t-17.5 7.5h-250q-10 0 -17.5 -7.5t-7.5 -17.5v-150q0 -10 7.5 -17.5t17.5 -7.5zM1625 600h250q10 0 17.5 7.5t7.5 17.5v150q0 10 -7.5 17.5t-17.5 7.5h-250 q-10 0 -17.5 -7.5t-7.5 -17.5v-150q0 -10 7.5 -17.5t17.5 -7.5z" />
<glyph unicode="&#xe091;" d="M231 26q-97 0 -164 67t-67 163q0 100 72 172l35 35q2 3 5.5 10t5.5 13.5t2 9.5q-6 26 -6 56q0 63 25.5 126.5t69.5 107.5l898 898l-112 111q-25 25 -25 59q0 33 23 56l142 142q23 22 56 22q34 0 59 -24l155 -155q11 14 13 15l318 319q157 157 284 157q97 0 183 -86 l71 -71q88 -88 88 -184q0 -72 -43.5 -141.5t-115.5 -141.5l-319 -319l-15 -12l155 -156q25 -24 25 -59q0 -33 -23 -55l-142 -142q-23 -23 -55 -23q-35 0 -60 25l-111 111l-898 -898q-44 -43 -107.5 -68.5t-125.5 -25.5q-28 0 -55 5q-4 0 -11 -2t-13.5 -5t-9.5 -5l-36 -36 q-71 -71 -171 -71zM321 700h707l531 531l-353 354z" />
<glyph unicode="&#xe092;" d="M1200 -25q-249 0 -475.5 97t-391 261.5t-261.5 391t-97 475.5q0 166 44 325t123 293t192.5 247.5t247.5 192.5t293 123t325 44t325 -44t293 -123t247.5 -192.5t192.5 -247.5t123 -293t44 -325q0 -125 -25 -246.5t-71 -230t-113.5 -208t-149.5 -181.5t-181.5 -149.5 t-208 -113.5t-230 -71t-246.5 -25zM1100 226v1948q-185 -21 -346.5 -105.5t-277 -213t-181.5 -299t-66 -356.5t66 -356.5t181.5 -299t277 -213.5t346.5 -105z" />
<glyph unicode="&#xe093;" d="M1950.5 1370q-67.5 0 -135 24.5t-123.5 68t-91 111t-35 145.5q0 61 16 120t43.5 110.5t61 102.5t72 103.5t73 104.5t67 115t51.5 125q19 -63 51 -125.5t66.5 -114t73 -104t72.5 -103t61.5 -102t43.5 -110.5t16 -119q0 -79 -34.5 -146.5t-90.5 -111.5t-123.5 -69t-135 -25 zM857 94q-89 0 -180 21.5t-176.5 62t-160.5 102t-130.5 137t-88 172t-32.5 202.5q0 121 32 239t87 221.5t122 205t143.5 207t146 209t134 229.5t103.5 251q38 -125 101.5 -250.5t133 -228.5t146 -208t144.5 -206t123.5 -204t87.5 -221t32 -239q0 -106 -32 -203t-88 -173 t-130.5 -138t-160 -103t-177 -63t-180.5 -22zM1850 1548q36 2 36 19q0 18 -36 34q-30 14 -49.5 50t-19.5 79q0 39 4 82t11.5 86t18.5 75q1 5 1 10q0 9 -6 15t-16 6q-26 0 -42 -31q-10 -17 -19.5 -35.5t-19 -40t-17.5 -44t-14 -45t-9.5 -45t-3.5 -42.5q0 -66 51 -117.5 t130 -55.5zM657 449q71 3 71 37q0 17 -19 35.5t-52 32.5q-61 28 -99.5 100.5t-38.5 157.5q0 79 7.5 165t23 172t36.5 150q3 10 3 19q0 20 -12.5 31t-32.5 11q-22 0 -45 -15.5t-39 -45.5q-66 -113 -115.5 -252.5t-49.5 -252.5q0 -62 26 -122.5t72 -108.5t115.5 -79t148.5 -35 z" />
<glyph unicode="&#xe094;" d="M300 300v2100h400v-300h1259l370 371l142 -142l-371 -370v-1259h400v-400h-2200zM-100 1700v400h300v-400h-300zM700 841l859 859h-859v-859zM841 700h859v859zM1700 -100v300h400v-300h-400z" />
<glyph unicode="&#xe095;" d="M0 0v400h100v1600h-100v400h400v-100h1600v100h400v-400h-100v-1600h100v-400h-400v100h-1600v-100h-400zM100 2100h200v200h-200v-200zM2100 2100h200v200h-200v-200zM400 300h1600v100h100v1600h-100v100h-1600v-100h-100v-1600h100v-100zM100 100h200v200h-200v-200z M2100 100h200v200h-200v-200z" />
<glyph unicode="&#xe096;" d="M1000 0v119q-221 41 -407 164.5t-309.5 309.5t-164.5 407h-119v400h119q31 166 110 314.5t193.5 263t263 193.5t314.5 110v119h400v-119q166 -31 314.5 -110t263 -193.5t193.5 -263t110 -314.5h119v-400h-119q-41 -221 -164.5 -407t-309.5 -309.5t-407 -164.5v-119h-400z M1100 2100h200v200h-200v-200zM1000 323v77h400v-77q252 58 435.5 241.5t241.5 435.5h-77v400h77q-58 252 -241.5 435.5t-435.5 241.5v-77h-400v77q-252 -58 -435.5 -241.5t-241.5 -435.5h77v-400h-77q58 -252 241.5 -435.5t435.5 -241.5zM100 1100h200v200h-200v-200z M2100 1100h200v200h-200v-200zM1100 100h200v200h-200v-200z" />
<glyph unicode="&#xe097;" d="M300 0v400h44l-295 900h-149v400h305l795 574v226h400v-226l798 -574h302v-400h-150l-294 -900h44v-400h-400v100h-1000v-100h-400zM1100 2200h200v200h-200v-200zM700 300h1000v100h146l294 900h-40v224l-800 576h-200l-800 -578v-222h-41l295 -900h146v-100zM0 1400 h200v200h-200v-200zM2200 1400h200v200h-200v-200zM400 100h200v200h-200v-200zM1800 100h200v200h-200v-200z" />
<glyph unicode="&#xe098;" d="M0 0v400h259l1741 1741v259h400v-400h-259l-1741 -1741v-259h-400zM2100 2100h200v200h-200v-200zM100 100h200v200h-200v-200z" />
<glyph unicode="&#xe099;" d="M0 0v400h136q35 202 105 394t170.5 363t228 323.5t280 280t323.5 228t363 170.5t394 105v136h400v-400h-400v61q-312 -60 -591 -210t-494.5 -365.5t-365.5 -494.5t-210 -591h61v-400h-400zM2100 2100h200v200h-200v-200zM100 100h200v200h-200v-200z" />
<glyph unicode="&#xe100;" d="M0 0v400h100v600h-100v400h100v600h-100v400h400v-100h600v100h400v-100h600v100h400v-400h-100v-600h100v-400h-100v-600h100v-400h-400v100h-600v-100h-400v100h-600v-100h-400zM100 2100h200v200h-200v-200zM1100 2100h200v200h-200v-200zM2100 2100h200v200h-200 v-200zM400 300h600v100h400v-100h600v100h100v600h-100v400h100v600h-100v100h-600v-100h-400v100h-600v-100h-100v-600h100v-400h-100v-600h100v-100zM100 1100h200v200h-200v-200zM2100 1100h200v200h-200v-200zM100 100h200v200h-200v-200zM1100 100h200v200h-200v-200z M2100 100h200v200h-200v-200z" />
<glyph unicode="&#xe101;" d="M0 100v127q12 5 31.5 14t62.5 35t66.5 49.5t48.5 59.5t38 60l13 25l766 1930h179l738 -1914q5 -11 13.5 -29t38 -65t63.5 -83t69.5 -56.5t54.5 -22.5l18 -3v-127h-800v127q79 0 122.5 53t43.5 127q0 38 -13 73l-158 426h-750q-110 -279 -176 -450q-16 -41 -16 -76 q0 -32 14.5 -58.5t38.5 -44t56 -29t66.5 -16.5t71.5 -5v-127h-700zM1700 1400v60l93 46l376 894h81l364 -896l86 -46v-58h-400v58l110 50l-76 200h-353l-91 -201l110 -47v-60h-300zM2018 1800h297l-101 280l-40 121zM696 1100h652l-222 607l-88 269z" />
<glyph unicode="&#xe102;" d="M500 0v114q146 13 229.5 77.5t101.5 165.5l319 1682q19 108 19 128q0 45 -33.5 68t-135.5 51v114h803l2 -114q-49 -11 -80 -19t-62 -18.5t-48.5 -19t-35 -23t-26.5 -28t-18.5 -36t-14.5 -45.5t-11 -58l-284 -1682q-3 -19 -3 -38q0 -40 15 -76t40 -62t57 -43.5t66 -23.5 v-114h-900z" />
<glyph unicode="&#xe103;" d="M200 0v178q82 13 141 64t59 131v1655q0 36 -0.5 52t-3 40.5t-7 34.5t-14.5 26t-23.5 23t-36 18t-49.5 18.5t-66 16.5v143h1096q75 0 152.5 -20t150.5 -57t136.5 -93.5t111.5 -125t75.5 -156t27.5 -182.5q0 -80 -24.5 -151.5t-64 -122t-87 -93t-95 -69.5t-87 -45.5 t-63.5 -26.5l-25 -8q7 -2 20 -5.5t52 -17.5t77 -31t89.5 -47.5t96 -65t89.5 -84t77 -105t52 -129t20 -153.5q0 -90 -27 -169.5t-74 -140.5t-110.5 -111.5t-134.5 -85.5t-148 -59t-150 -35t-141 -11h-1092zM900 1400h296q58 0 103.5 20t74.5 53t48 79t26.5 94.5t7.5 103.5 t-7.5 103.5t-26.5 94.5t-48 79t-74.5 53t-103.5 20h-296v-700zM900 300h299q83 0 150.5 24.5t115 70.5t73 115t25.5 156q0 90 -22 167t-66 137.5t-115.5 95t-163.5 34.5h-296v-800z" />
<glyph unicode="&#xe104;" d="M700 400v100h42.5t46 1.5t51 4t47.5 7t45 12t35 17.5t25 25t8 33v1600h-400q-137 0 -218.5 -77t-81.5 -223h-100v500h2000v-500h-100q0 146 -81.5 223t-218.5 77h-400v-1600q0 -18 8 -33t25 -25t35 -17.5t45 -12t47.5 -7t51 -4t46 -1.5h42.5v-100h-1000zM200 0v200h2000 v-200h-2000z" />
<glyph unicode="&#xe105;" d="M700 200v100h42.5t46 1.5t51 4t47.5 7t45 12t35 17.5t25 25t8 33v800h-800v200h800v800h-400q-137 0 -218.5 -77t-81.5 -223h-100v500h2000v-500h-100q0 146 -81.5 223t-218.5 77h-400v-800h800v-200h-800v-800q0 -18 8 -33t25 -25t35 -17.5t45 -12t47.5 -7t51 -4 t46 -1.5h42.5v-100h-1000z" />
<glyph unicode="&#xe106;" d="M150 167l-250 333h200v1600h-200l250 333l250 -333h-200v-1600h200zM1000 200v100h42.5t46 1.5t51 4t47.5 7t45 12t35 17.5t25 25t8 33v1800h-400q-137 0 -218.5 -77t-81.5 -223h-100v500h2000v-500h-100q0 146 -81.5 223t-218.5 77h-400v-1800q0 -18 8 -33t25 -25 t35 -17.5t45 -12t47.5 -7t51 -4t46 -1.5h42.5v-100h-1000z" />
<glyph unicode="&#xe107;" d="M700 500v100q36 0 58 0.5t63 3t67.5 9t55 17t42.5 28.5t14 42v1500h-400q-137 0 -218.5 -77t-81.5 -223h-100v500h2000v-500h-100q0 146 -81.5 223t-218.5 77h-400v-1500q0 -24 14 -42t42.5 -28.5t55 -17t67.5 -9t63 -3t58 -0.5v-100h-1000zM500 0l-333 250l333 250v-200 h1400v200l333 -250l-333 -250v200h-1400v-200z" />
<glyph unicode="&#xe108;" d="M-100 -100v300h100v2000h-100v300h300v-100h2000v100h300v-300h-100v-2000h100v-300h-300v100h-2000v-100h-300zM0 2300h100v100h-100v-100zM2300 2300h100v100h-100v-100zM200 100h2000v100h100v2000h-100v100h-2000v-100h-100v-2000h100v-100zM700 300v100h42.5t46 1.5 t51 4t47.5 7t45 12t35 17.5t25 25t8 33v1400h-400q-137 0 -218.5 -77t-81.5 -223h-100v500h2000v-500h-100q0 98 -38.5 166t-105 101t-156.5 33h-400v-1400q0 -18 8 -33t25 -25t35 -17.5t45 -12t47.5 -7t51 -4t46 -1.5h42.5v-100h-1000zM0 0h100v100h-100v-100zM2300 0h100 v100h-100v-100z" />
<glyph unicode="&#xe109;" d="M700 100v2200h200v-2200h-200zM1050 1800q-21 0 -35.5 14.5t-14.5 35.5v200q0 21 14.5 35.5t35.5 14.5h600q21 0 35.5 -14.5t14.5 -35.5v-200q0 -21 -14.5 -35.5t-35.5 -14.5h-600zM1050 1300q-21 0 -35.5 14.5t-14.5 35.5v200q0 21 14.5 35.5t35.5 14.5h1100 q21 0 35.5 -14.5t14.5 -35.5v-200q0 -21 -14.5 -35.5t-35.5 -14.5h-1100zM300 900v200h-300v100h300v200l333 -250zM1050 800q-21 0 -35.5 14.5t-14.5 35.5v200q0 21 14.5 35.5t35.5 14.5h800q21 0 35.5 -14.5t14.5 -35.5v-200q0 -21 -14.5 -35.5t-35.5 -14.5h-800z M1050 300q-21 0 -35.5 14.5t-14.5 35.5v200q0 21 14.5 35.5t35.5 14.5h1300q21 0 35.5 -14.5t14.5 -35.5v-200q0 -21 -14.5 -35.5t-35.5 -14.5h-1300z" />
<glyph unicode="&#xe110;" d="M1500 100v2200h200v-2200h-200zM50 1800q-21 0 -35.5 14.5t-14.5 35.5v200q0 21 14.5 35.5t35.5 14.5h600q21 0 35.5 -14.5t14.5 -35.5v-200q0 -21 -14.5 -35.5t-35.5 -14.5h-600zM50 1300q-21 0 -35.5 14.5t-14.5 35.5v200q0 21 14.5 35.5t35.5 14.5h1100 q21 0 35.5 -14.5t14.5 -35.5v-200q0 -21 -14.5 -35.5t-35.5 -14.5h-1100zM2100 900l-333 250l333 250v-200h300v-100h-300v-200zM50 800q-21 0 -35.5 14.5t-14.5 35.5v200q0 21 14.5 35.5t35.5 14.5h800q21 0 35.5 -14.5t14.5 -35.5v-200q0 -21 -14.5 -35.5t-35.5 -14.5 h-800zM50 300q-21 0 -35.5 14.5t-14.5 35.5v200q0 21 14.5 35.5t35.5 14.5h1300q21 0 35.5 -14.5t14.5 -35.5v-200q0 -21 -14.5 -35.5t-35.5 -14.5h-1300z" />
<glyph unicode="&#xe111;" d="M50 1900q-21 0 -35.5 14.5t-14.5 35.5v200q0 21 14.5 35.5t35.5 14.5h1299q20 0 35 -14.5t15 -35.5v-200q0 -10 -4 -19.5t-11 -16t-16 -10.5t-19 -4h-1299zM50 1300q-21 0 -35.5 14.5t-14.5 35.5v200q0 21 14.5 35.5t35.5 14.5h2099q13 0 24.5 -6.5t18.5 -18.5t7 -25 v-200q0 -21 -15 -35.5t-35 -14.5h-2099zM50 700q-21 0 -35.5 14.5t-14.5 35.5v200q0 21 14.5 35.5t35.5 14.5h1699q10 0 19 -4t16 -10.5t11 -16t4 -19.5v-200q0 -21 -15 -35.5t-35 -14.5h-1699zM50 100q-21 0 -35.5 14.5t-14.5 35.5v200q0 21 14.5 35.5t35.5 14.5h2300 q21 0 35.5 -14.5t14.5 -35.5v-200q0 -21 -14.5 -35.5t-35.5 -14.5h-2300z" />
<glyph unicode="&#xe112;" d="M450 1900q-21 0 -35.5 14.5t-14.5 35.5v200q0 21 14.5 35.5t35.5 14.5h1500q21 0 35.5 -14.5t14.5 -35.5v-200q0 -21 -14.5 -35.5t-35.5 -14.5h-1500zM50 1300q-21 0 -35.5 14.5t-14.5 35.5v200q0 21 14.5 35.5t35.5 14.5h2300q21 0 35.5 -14.5t14.5 -35.5v-200 q0 -21 -14.5 -35.5t-35.5 -14.5h-2300zM450 700q-21 0 -35.5 14.5t-14.5 35.5v200q0 21 14.5 35.5t35.5 14.5h1500q21 0 35.5 -14.5t14.5 -35.5v-200q0 -21 -14.5 -35.5t-35.5 -14.5h-1500zM50 100q-21 0 -35.5 14.5t-14.5 35.5v200q0 21 14.5 35.5t35.5 14.5h2300 q21 0 35.5 -14.5t14.5 -35.5v-200q0 -21 -14.5 -35.5t-35.5 -14.5h-2300z" />
<glyph unicode="&#xe113;" d="M1051 1900q-20 0 -35 14.5t-15 35.5v200q0 21 15 35.5t35 14.5h1299q21 0 35.5 -14.5t14.5 -35.5v-200q0 -21 -14.5 -35.5t-35.5 -14.5h-1299zM251 1300q-20 0 -35 14.5t-15 35.5v200q0 21 15 35.5t35 14.5h2099q21 0 35.5 -14.5t14.5 -35.5v-200q0 -21 -14.5 -35.5 t-35.5 -14.5h-2099zM651 700q-20 0 -35 14.5t-15 35.5v200q0 21 15 35.5t35 14.5h1699q21 0 35.5 -14.5t14.5 -35.5v-200q0 -21 -14.5 -35.5t-35.5 -14.5h-1699zM50 100q-21 0 -35.5 14.5t-14.5 35.5v200q0 21 14.5 35.5t35.5 14.5h2300q21 0 35.5 -14.5t14.5 -35.5v-200 q0 -21 -14.5 -35.5t-35.5 -14.5h-2300z" />
<glyph unicode="&#xe114;" d="M50 1900q-21 0 -35.5 14.5t-14.5 35.5v200q0 21 14.5 35.5t35.5 14.5h2300q21 0 35.5 -14.5t14.5 -35.5v-200q0 -21 -14.5 -35.5t-35.5 -14.5h-2300zM50 1300q-21 0 -35.5 14.5t-14.5 35.5v200q0 21 14.5 35.5t35.5 14.5h2300q21 0 35.5 -14.5t14.5 -35.5v-200 q0 -21 -14.5 -35.5t-35.5 -14.5h-2300zM50 700q-21 0 -35.5 14.5t-14.5 35.5v200q0 21 14.5 35.5t35.5 14.5h2300q21 0 35.5 -14.5t14.5 -35.5v-200q0 -21 -14.5 -35.5t-35.5 -14.5h-2300zM50 100q-21 0 -35.5 14.5t-14.5 35.5v200q0 21 14.5 35.5t35.5 14.5h2300 q21 0 35.5 -14.5t14.5 -35.5v-200q0 -21 -14.5 -35.5t-35.5 -14.5h-2300z" />
<glyph unicode="&#xe115;" d="M50 1900q-21 0 -35.5 14.5t-14.5 35.5v200q0 21 14.5 35.5t35.5 14.5h200q21 0 35.5 -14.5t14.5 -35.5v-200q0 -21 -14.5 -35.5t-35.5 -14.5h-200zM550 1900q-21 0 -35.5 14.5t-14.5 35.5v200q0 21 14.5 35.5t35.5 14.5h1800q21 0 35.5 -14.5t14.5 -35.5v-200 q0 -21 -14.5 -35.5t-35.5 -14.5h-1800zM50 1300q-21 0 -35.5 14.5t-14.5 35.5v200q0 21 14.5 35.5t35.5 14.5h200q21 0 35.5 -14.5t14.5 -35.5v-200q0 -21 -14.5 -35.5t-35.5 -14.5h-200zM550 1300q-21 0 -35.5 14.5t-14.5 35.5v200q0 21 14.5 35.5t35.5 14.5h1800 q21 0 35.5 -14.5t14.5 -35.5v-200q0 -21 -14.5 -35.5t-35.5 -14.5h-1800zM50 700q-21 0 -35.5 14.5t-14.5 35.5v200q0 21 14.5 35.5t35.5 14.5h200q21 0 35.5 -14.5t14.5 -35.5v-200q0 -21 -14.5 -35.5t-35.5 -14.5h-200zM550 700q-21 0 -35.5 14.5t-14.5 35.5v200 q0 21 14.5 35.5t35.5 14.5h1800q21 0 35.5 -14.5t14.5 -35.5v-200q0 -21 -14.5 -35.5t-35.5 -14.5h-1800zM50 100q-21 0 -35.5 14.5t-14.5 35.5v200q0 21 14.5 35.5t35.5 14.5h200q21 0 35.5 -14.5t14.5 -35.5v-200q0 -21 -14.5 -35.5t-35.5 -14.5h-200zM550 100 q-21 0 -35.5 14.5t-14.5 35.5v200q0 21 14.5 35.5t35.5 14.5h1800q21 0 35.5 -14.5t14.5 -35.5v-200q0 -21 -14.5 -35.5t-35.5 -14.5h-1800z" />
<glyph unicode="&#xe116;" d="M400 400v100h42.5t46 1.5t51 4t47.5 7t45 12t35 17.5t25 25t8 33v1200h-100q-137 0 -218.5 -77t-81.5 -223h-100v500h1300v-500h-100q0 98 -38.5 166t-105 101t-156.5 33h-100v-1200q0 -18 8 -33t25 -25t35 -17.5t45 -12t47.5 -7t51 -4t46 -1.5h42.5v-100h-900z M1600 1000v200h800v-200h-800z" />
<glyph unicode="&#xe117;" d="M500 100v100h33t36 0.5t40 2t39.5 4t39.5 6t35 9t31.5 13t23.5 16.5t16.5 21.5t5.5 27.5v1800h-400q-137 0 -218.5 -77t-81.5 -223h-100v500h2000v-500h-100q0 146 -81.5 223t-218.5 77h-400v-1800q0 -18 8 -33t25 -25t35 -17.5t45 -12t47.5 -7t51 -4t46 -1.5h42.5v-100 h-1000zM1900 700v300h-300v200h300v300h200v-300h300v-200h-300v-300h-200z" />
<glyph unicode="&#xe118;" d="M800 401l-1100 636v150l1100 611v-265l-789 -421l789 -445v-266zM1600 401v266l789 445l-789 421v265l1100 -611v-150z" />
<glyph unicode="&#xe119;" d="M825 0l941 2400h249l-939 -2400h-251zM800 401l-1100 636v150l1100 611v-265l-789 -421l789 -445v-266zM1600 401v172l48 121l741 418l-478 255l83 212l706 -392v-150z" />
<glyph unicode="&#xe120;" d="M300 0q-124 0 -212 88t-88 212v1800q0 124 88 212t212 88h1800q124 0 212 -88t88 -212v-1800q0 -124 -88 -212t-212 -88h-1800zM200 1900h2000v300h-2000v-300zM200 1400h600v300h-600v-300zM900 1400h600v300h-600v-300zM1600 1400h600v300h-600v-300zM200 1000h600v300 h-600v-300zM900 1000h600v300h-600v-300zM1600 1000h600v300h-600v-300zM200 600h600v300h-600v-300zM900 600h600v300h-600v-300zM1600 600h600v300h-600v-300zM200 200h600v300h-600v-300zM900 200h600v300h-600v-300zM1600 200h600v300h-600v-300z" />
<glyph unicode="&#xe121;" d="M402 1398l-202 202h-200l1200 1200l1200 -1200h-200l-150 -150l-650 650zM0 200v1400l700 -700zM2400 200l-700 700l700 700v-1400zM0 0l800 800h800l800 -800h-2400z" />
<glyph unicode="&#xe122;" d="M900 900l-700 700h-200l1200 1200l1200 -1200h-200l-700 -700h-600zM0 200v1400l700 -700zM2400 200l-700 700l700 700v-1400zM0 0l800 800h800l800 -800h-2400z" />
<glyph unicode="&#xe123;" d="M900 900l-700 700h-200l1200 1200l1200 -1200h-200l-700 -700h-600zM1219 1196l476 573q5 6 5 14q0 7 -4 12t-11 5h-285v460q0 40 -44 40h-311q-45 0 -45 -40v-460h-283q-7 0 -11 -5.5t-4 -12.5q0 -8 5 -14l479 -569q8 -11 19 -11q8 0 14 8zM0 200v1400l700 -700z M2400 200l-700 700l700 700v-1400zM0 0l800 800h800l800 -800h-2400z" />
<glyph unicode="&#xe124;" d="M900 900l-700 700h-200l1200 1200l1200 -1200h-200l-700 -700h-600zM1045 1200h311q44 0 44 40v460h284q5 0 8.5 2.5t5 6.5t1.5 9q0 8 -5 14l-479 569q-8 11 -18 11q-9 0 -15 -8l-476 -574q-5 -5 -5 -13q0 -7 4 -12t11 -5h284v-460q0 -40 45 -40zM0 200v1400l700 -700z M2400 200l-700 700l700 700v-1400zM0 0l800 800h800l800 -800h-2400z" />
<glyph unicode="&#xe125;" d="M2400 1300q-83 0 -158 21t-137.5 63t-108 101t-71 140t-25.5 175q0 109 39.5 203.5t107 159t159 101t194.5 36.5q102 0 194.5 -39.5t159.5 -106.5t106.5 -159.5t39.5 -194.5t-39.5 -194.5t-106.5 -159.5t-159.5 -106.5t-194.5 -39.5zM2350 1500h100q21 0 35.5 14.5 t14.5 35.5v150h150q21 0 35.5 14.5t14.5 35.5v100q0 21 -14.5 35.5t-35.5 14.5h-150v150q0 21 -14.5 35.5t-35.5 14.5h-100q-21 0 -35.5 -14.5t-14.5 -35.5v-150h-150q-21 0 -35.5 -14.5t-14.5 -35.5v-100q0 -21 14.5 -35.5t35.5 -14.5h150v-150q0 -21 14.5 -35.5 t35.5 -14.5zM1200 400l-1200 1200h1724q32 -130 104.5 -230t177.5 -165zM0 200v1200l600 -600zM2400 200l-600 600l342 342q122 -42 258 -42v-900zM0 0l700 700l500 -500l500 500l700 -700h-2400z" />
<glyph unicode="&#xe126;" d="M2400 1300q-105 0 -195 32.5t-158.5 93.5t-107.5 157.5t-39 216.5t39 216.5t107.5 157.5t158.5 93.5t195 32.5q101 0 194 -42.5t160 -113.5t106.5 -166.5t39.5 -197.5q0 -101 -39.5 -191t-106.5 -153t-159.5 -99.5t-194.5 -36.5zM2150 1700h500q21 0 35.5 14.5t14.5 35.5 v100q0 21 -14.5 35.5t-35.5 14.5h-500q-21 0 -35.5 -14.5t-14.5 -35.5v-100q0 -21 14.5 -35.5t35.5 -14.5zM1200 400l-1200 1200h1724q32 -130 104.5 -230t177.5 -165zM0 200v1200l600 -600zM2400 200l-600 600l342 342q122 -42 258 -42v-900zM0 0l700 700l500 -500l500 500 l700 -700h-2400z" />
<glyph unicode="&#xe127;" d="M2405 1303q-101 0 -192.5 39t-158 105.5t-106 158.5t-39.5 192.5t39.5 192t106 158t158 105.5t192 39t192.5 -39t158 -105.5t105.5 -158t39.5 -192.5q0 -80 -25 -156t-71 -136.5t-107 -106.5t-136.5 -71t-155.5 -25zM2718 1600q58 91 58 198q0 101 -49.5 186.5 t-135.5 135.5t-186 50q-107 0 -198 -58zM2405 1427q107 0 198 57l-512 512q-58 -91 -58 -198q0 -101 50 -186.5t135.5 -135t186.5 -49.5zM1200 400l-1200 1200h1724q32 -130 104.5 -230t176.5 -165zM0 200v1200l600 -600zM2400 200l-600 600l342 342q122 -42 258 -42v-900z M0 0l700 700l500 -500l500 500l700 -700h-2400z" />
<glyph unicode="&#xe128;" d="M2150 1400q-13 0 -25 6.5t-18.5 18t-6.5 25.5v850h550q21 0 35.5 -14.5t14.5 -35.5v-300q0 -21 -13.5 -41t-32.5 -28l-454 -181v-250q0 -21 -14.5 -35.5t-35.5 -14.5zM1203 400l-1200 1200h1897v-150q0 -70 36.5 -128.5t96.5 -91.5zM0 200v1200l600 -600zM2400 200 l-600 600l407 407q69 16 119.5 66.5t66.5 119.5l7 7v-1200zM3 0l700 700l500 -500l500 500l700 -700h-2400z" />
<glyph unicode="&#xe129;" d="M2017 1400q-4 0 -8 2.5t-6.5 6t-2.5 7.5v566q0 6 5.5 12t11.5 6h83v255q0 56 43 100.5t99 44.5h313q55 0 100 -44.5t45 -100.5v-255h81q6 0 12.5 -6t6.5 -12v-566q0 -6 -6 -11t-13 -5h-764zM2200 2000h400v255q0 25 -10.5 35t-35.5 10h-311q-25 0 -34 -9.5t-9 -35.5v-255 zM1200 400l-1200 1200h1800v-184q0 -85 58.5 -146.5t143.5 -67.5zM0 200v1200l600 -600zM2400 200l-600 600l400 400h200v-1000zM0 0l700 700l500 -500l500 500l700 -700h-2400z" />
<glyph unicode="&#xe130;" d="M2340 1400q-11 0 -25.5 5.5t-14.5 12.5v186l-111 -122q-6 -6 -9.5 -6t-8.5 5l-85 83q-6 6 -6 12t6 12l121 112h-187q-5 0 -10 7.5t-7.5 16t-2.5 14.5v120q0 6 2.5 15.5t7.5 18t10 8.5h187l-122 110q-7 6 -7 9t5 8l83 85q5 6 11 6t12 -6l111 -120v186q0 8 15 15t25 7h120 q10 0 25 -7t15 -15v-187l111 122q7 7 10.5 7t8.5 -5l85 -82q5 -6 5 -11.5t-5 -11.5l-121 -110h186q7 0 13.5 -16t6.5 -26v-120q0 -10 -6.5 -24t-13.5 -14h-186l122 -112q6 -7 6 -10.5t-5 -9.5l-82 -84q-6 -6 -12 -6t-12 6l-111 121v-187q0 -7 -14.5 -12.5t-25.5 -5.5h-120z M1200 400l-1200 1200h1835q35 -98 100 -178t153 -134zM0 200v1200l600 -600zM2400 200l-600 600l426 426q85 -26 174 -26v-1000zM0 0l700 700l500 -500l500 500l700 -700h-2400z" />
<glyph unicode="&#xe131;" d="M50 0q-21 0 -35.5 14.5t-14.5 35.5q2 1065 3 1069l373 1132q6 20 25.5 34.5t40.5 14.5h1516q22 0 41 -12t25 -32l373 -1137l3 -1069q0 -21 -14.5 -35.5t-35.5 -14.5h-2300zM900 600h600l200 500h410l-304 900h-1212l-303 -900h409z" />
<glyph unicode="&#xe132;" d="M2200 1700q-104 0 -194.5 33.5t-159 95.5t-107.5 158t-39 213q0 109 39.5 203.5t107 159t159 101t194.5 36.5q102 0 194.5 -39.5t159.5 -106.5t106.5 -159.5t39.5 -194.5t-39.5 -194.5t-106.5 -159.5t-159.5 -106.5t-194.5 -39.5zM2150 1900h100q21 0 35.5 14.5 t14.5 35.5v150h150q21 0 35.5 14.5t14.5 35.5v100q0 21 -14.5 35.5t-35.5 14.5h-150v150q0 21 -14.5 35.5t-35.5 14.5h-100q-21 0 -35.5 -14.5t-14.5 -35.5v-150h-150q-21 0 -35.5 -14.5t-14.5 -35.5v-100q0 -21 14.5 -35.5t35.5 -14.5h150v-150q0 -21 14.5 -35.5 t35.5 -14.5zM50 0q-21 0 -35.5 14.5t-14.5 35.5q2 1065 3 1069l373 1132q4 13 14.5 24.5t24 18t27.5 6.5h1058v-300h-906l-303 -900h409l200 -500h600l200 500h410l-135 400h297l125 -381l3 -1069q0 -21 -14.5 -35.5t-35.5 -14.5h-2300z" />
<glyph unicode="&#xe133;" d="M2200 1700q-105 0 -195 32.5t-158.5 93.5t-107.5 157.5t-39 216.5t39 216.5t107.5 157.5t158.5 93.5t195 32.5q101 0 194 -42.5t160 -113.5t106.5 -166.5t39.5 -197.5q0 -101 -39.5 -191t-106.5 -153t-159.5 -99.5t-194.5 -36.5zM50 0q-21 0 -35.5 14.5t-14.5 35.5 q2 1065 3 1069l373 1132q4 13 14.5 24.5t24 18t27.5 6.5h1058v-300h-906l-303 -900h409l200 -500h600l200 500h410l-135 400h297l125 -381l3 -1069q0 -21 -14.5 -35.5t-35.5 -14.5h-2300zM1950 2100h500q21 0 35.5 14.5t14.5 35.5v100q0 21 -14.5 35.5t-35.5 14.5h-500 q-21 0 -35.5 -14.5t-14.5 -35.5v-100q0 -21 14.5 -35.5t35.5 -14.5z" />
<glyph unicode="&#xe134;" d="M1817 1800q-4 0 -8 2.5t-6.5 6t-2.5 7.5v566q0 6 5.5 12t11.5 6h83v255q0 56 43 100.5t99 44.5h313q55 0 100 -44.5t45 -100.5v-255h81q6 0 12.5 -6t6.5 -12v-566q0 -6 -6 -11t-13 -5h-764zM2000 2400h400v255q0 25 -10.5 35t-35.5 10h-311q-17 0 -26 -4.5t-13 -14 t-4 -26.5v-255zM50 0q-21 0 -35.5 14.5t-14.5 35.5q2 1065 3 1069l373 1132q4 13 14.5 24.5t24 18t27.5 6.5h1058v-300h-906l-303 -900h409l200 -500h600l200 500h410l-135 400h297l125 -381l3 -1069q0 -21 -14.5 -35.5t-35.5 -14.5h-2300z" />
<glyph unicode="&#xe135;" d="M1205 1288q-11 0 -19 11l-479 569q-5 6 -5 14q0 7 4 12.5t11 5.5h283v650q0 13 6.5 25t18 18.5t25.5 6.5h300q21 0 35.5 -14.5t14.5 -35.5v-650h285q7 0 11 -5t4 -12q0 -8 -4 -14l-477 -573q-6 -8 -14 -8zM50 0q-21 0 -35.5 14.5t-14.5 35.5q2 1065 3 1069l373 1132 q4 13 14.5 24.5t24 18t27.5 6.5h458v-300h-306l-303 -900h409l200 -500h600l200 500h410l-304 900h-306v300h458q22 0 41 -12t25 -32l373 -1137l3 -1069q0 -21 -14.5 -35.5t-35.5 -14.5h-2300z" />
<glyph unicode="&#xe136;" d="M1050 1300h-16t-13 1.5t-12 4t-6 7.5t-3 13v674h-283q-15 0 -15 9q0 5 5 11l479 564q6 7 19 7q7 0 14 -9l477 -563q4 -6 4 -10q0 -9 -15 -9h-285v-674q0 -8 -3 -13t-6 -7.5t-12 -4t-13 -1.5h-16h-300zM50 0q-21 0 -35.5 14.5t-14.5 35.5v1050h2v4t0.5 8.5t0.5 6.5 l373 1132q6 20 25.5 34.5t40.5 14.5h280l-222 -300h100l-309 -900h409l200 -500h600l200 500h410l-310 900h100l-225 300h283q14 0 27.5 -5t24 -15.5t14.5 -23.5l373 -1137q0 -2 0.5 -6.5t0.5 -8.5v-4h2v-1050q0 -21 -14.5 -35.5t-35.5 -14.5h-2300z" />
<glyph unicode="&#xe137;" d="M1195 10q-69 0 -154 11l-79 315q-115 31 -216 90l-279 -167q-123 94 -218 217l167 279q-59 102 -89 217l-316 79q-11 85 -11 154t11 154l316 79q30 114 89 216l-167 279q95 123 218 218l279 -167q102 58 216 89l79 316q86 11 154 11q69 0 154 -11l79 -316 q115 -30 217 -89l279 167q123 -95 217 -218l-167 -279q59 -102 90 -216l316 -79q10 -86 10 -154t-10 -154l-316 -79q-31 -115 -90 -217l168 -278q-96 -124 -218 -218l-279 167q-101 -59 -217 -90l-79 -315q-85 -11 -154 -11zM1195 787q85 0 162.5 33t133.5 89t89 133.5 t33 162.5t-33 162.5t-89 133.5t-133.5 89t-162.5 33q-113 0 -209.5 -56t-152.5 -152.5t-56 -210t56 -209.5t152.5 -152t209.5 -56z" />
<glyph unicode="&#xe138;" d="M697 -1q-71 0 -154 11l-79 316q-114 30 -217 89l-278 -167q-123 94 -218 218l167 278q-58 100 -90 217l-315 79q-11 79 -11 154t11 154l315 79q32 116 90 217l-167 278q95 124 218 218l278 -167q102 59 217 89l79 316q86 11 154 11q69 0 154 -11l79 -316q115 -30 217 -89 l278 167q123 -94 218 -218l-167 -278q59 -103 89 -217l316 -79q11 -85 11 -154t-11 -154l-316 -79q-30 -114 -89 -216l167 -279q-94 -123 -218 -218l-278 167q-102 -59 -217 -89l-79 -316q-83 -11 -154 -11zM696.5 776q113.5 0 210 56t152.5 152t56 210t-56 210t-152.5 152 t-210 56t-209.5 -56t-152 -152t-56 -210t56 -210t152 -152t209.5 -56zM2300 -273q-34 0 -74 5l-38 151l-5 2q-50 14 -94 39l-5 2l-133 -80q-61 47 -105 105l80 134l-3 5q-25 45 -38 93l-2 6l-151 37q-6 45 -6 75q0 33 6 73l151 38l2 6q13 48 38 93l3 5l-80 134 q47 60 105 105l133 -81l5 3q45 25 94 39l5 1l38 152q43 5 74 5q33 0 74 -5l38 -152l6 -1q48 -14 93 -39l5 -3l134 81q61 -48 104 -105l-80 -134l3 -5q25 -44 39 -93l1 -6l152 -38q5 -41 5 -73q0 -34 -5 -75l-152 -37l-1 -6q-14 -49 -39 -93l-3 -5l80 -134q-49 -62 -104 -105 l-134 81l-5 -3q-44 -25 -93 -39l-6 -2l-38 -151q-46 -5 -74 -5zM2300 86q89 0 152 63t63 151.5t-63 151.5t-152 63t-152 -63t-63 -151.5t63 -151.5t152 -63z" />
<glyph unicode="&#xe139;" d="M88 200q-37 0 -62.5 25.5t-25.5 61.5v1825q0 37 25.5 62.5t62.5 25.5h2224q37 0 62.5 -25.5t25.5 -62.5v-1825q0 -36 -25.5 -61.5t-62.5 -25.5h-2224zM200 500l606 400q37 -15 96 -39.5t195.5 -89.5t219.5 -117q34 -22 51 -22q15 0 15 18q0 34 -45 107t-114 146t-125 97 q44 44 135 144t159 178l69 78l5.5 5.5t15.5 14t24 20t30 21t36 20t39 14t41 5.5q27 0 57 -10.5t53.5 -25t43 -29t30.5 -25.5l10 -10l353 -358v958h-2000v-1500zM600 1381q-90 0 -154.5 64.5t-64.5 154.5t64.5 154.5t154.5 64.5q59 0 109.5 -29.5t80 -80t29.5 -109.5 q0 -90 -64.5 -154.5t-154.5 -64.5z" />
<glyph unicode="&#xe140;" d="M200 500q-41 0 -70.5 29.5t-29.5 70.5v300q0 41 29.5 70.5t70.5 29.5h100v1400h300v-1400h100q41 0 70.5 -29.5t29.5 -70.5v-300q0 -27 -13.5 -50t-36.5 -36.5t-50 -13.5h-500zM1000 1000q-20 0 -38.5 8t-32 21.5t-21.5 32t-8 38.5v300q0 41 29.5 70.5t70.5 29.5h100v900 h300v-900h100q41 0 70.5 -29.5t29.5 -70.5v-300q0 -41 -29.5 -70.5t-70.5 -29.5h-500zM1800 1500q-41 0 -70.5 29.5t-29.5 70.5v300q0 41 29.5 70.5t70.5 29.5h100v400h300v-400h100q41 0 70.5 -29.5t29.5 -70.5v-300q0 -14 -3.5 -26.5t-10 -23.5t-16 -20.5t-20.5 -16 t-23.5 -10t-26.5 -3.5h-500zM1800 1700h500v50h-500v-50zM1900 0v1400h300v-1400h-300zM1000 1200h500v50h-500v-50zM1100 0v900h300v-900h-300zM200 700h500v50h-500v-50zM300 0v400h300v-400h-300z" />
<glyph unicode="&#xe141;" d="M1817 1800q-4 0 -8 2.5t-6.5 6t-2.5 7.5v566q0 6 5.5 12t11.5 6h83v255q0 56 43 100.5t99 44.5h313q55 0 100 -44.5t45 -100.5v-255h81q6 0 12.5 -6t6.5 -12v-566q0 -6 -6 -11t-13 -5h-764zM2000 2400h400v255q0 25 -10.5 35t-35.5 10h-311q-17 0 -26 -4.5t-13 -14 t-4 -26.5v-255zM750 1500q-204 0 -376.5 26.5t-273 73t-100.5 100.5v300q0 54 100.5 100t273 73t376.5 27t376.5 -27t273 -73t100.5 -100v-300q0 -54 -100.5 -100.5t-273 -73t-376.5 -26.5zM750 1985q134 0 228.5 19t94.5 46t-94.5 45.5t-228.5 18.5t-228.5 -18.5 t-94.5 -45.5t94.5 -46t228.5 -19zM750 1000q-204 0 -376.5 26.5t-273 73t-100.5 100.5v300q0 15 12 33q58 -35 146.5 -61.5t170 -39.5t175.5 -21t147 -9.5t99 -1.5t99 1.5t147 9.5t175.5 21t170 39.5t146.5 61.5q12 -18 12 -33v-300q0 -54 -100.5 -100.5t-273 -73 t-376.5 -26.5zM750 500q-204 0 -376.5 26.5t-273 73t-100.5 100.5v300q0 15 12 33q42 -25 100 -46t117 -34.5t126.5 -24t123.5 -15.5t114.5 -8.5t92.5 -4t64 -0.5q46 0 99 1.5t147 9.5t175.5 21t170 39.5t146.5 61.5q12 -18 12 -33v-300q0 -41 -59.5 -78t-160 -63.5 t-239 -42.5t-291.5 -16zM750 0q-204 0 -376.5 27t-273 73t-100.5 100v300q0 15 12 33q49 -29 117.5 -52.5t142.5 -37.5t144.5 -23.5t141.5 -13t113 -5t79 -1.5q46 0 99 1.5t146.5 9.5t175.5 21t170.5 39.5t146.5 61.5q12 -18 12 -33v-300q0 -54 -100.5 -100t-273 -73 t-376.5 -27z" />
<glyph unicode="&#xe142;" d="M2200 1700q-104 0 -194.5 33.5t-159 95.5t-107.5 158t-39 213q0 109 39.5 203.5t107 159t159 101t194.5 36.5q102 0 194.5 -39.5t159.5 -106.5t106.5 -159.5t39.5 -194.5t-39.5 -194.5t-106.5 -159.5t-159.5 -106.5t-194.5 -39.5zM2150 1900h100q21 0 35.5 14.5 t14.5 35.5v150h150q21 0 35.5 14.5t14.5 35.5v100q0 21 -14.5 35.5t-35.5 14.5h-150v150q0 21 -14.5 35.5t-35.5 14.5h-100q-21 0 -35.5 -14.5t-14.5 -35.5v-150h-150q-21 0 -35.5 -14.5t-14.5 -35.5v-100q0 -21 14.5 -35.5t35.5 -14.5h150v-150q0 -21 14.5 -35.5 t35.5 -14.5zM750 1500q-204 0 -376.5 26.5t-273 73t-100.5 100.5v300q0 54 100.5 100t273 73t376.5 27t376.5 -27t273 -73t100.5 -100v-300q0 -54 -100.5 -100.5t-273 -73t-376.5 -26.5zM750 1985q134 0 228.5 19t94.5 46t-94.5 45.5t-228.5 18.5t-228.5 -18.5t-94.5 -45.5 t94.5 -46t228.5 -19zM750 1000q-204 0 -376.5 26.5t-273 73t-100.5 100.5v300q0 15 12 33q58 -35 146.5 -61.5t170 -39.5t175.5 -21t147 -9.5t99 -1.5t99 1.5t147 9.5t175.5 21t170 39.5t146.5 61.5q12 -18 12 -33v-300q0 -54 -100.5 -100.5t-273 -73t-376.5 -26.5zM750 500 q-204 0 -376.5 26.5t-273 73t-100.5 100.5v300q0 15 12 33q58 -35 146.5 -61.5t170 -39.5t175.5 -21t147 -9.5t99 -1.5t99 1.5t147 9.5t175.5 21t170 39.5t146.5 61.5q12 -18 12 -33v-300q0 -41 -59.5 -78t-160 -63.5t-239 -42.5t-291.5 -16zM750 0q-204 0 -376.5 27 t-273 73t-100.5 100v300q0 15 12 33q49 -29 117.5 -52.5t142.5 -37.5t144.5 -23.5t141.5 -13t113 -5t79 -1.5q46 0 99 1.5t146.5 9.5t175.5 21t170.5 39.5t146.5 61.5q12 -18 12 -33v-300q0 -54 -100.5 -100t-273 -73t-376.5 -27z" />
<glyph unicode="&#xe143;" d="M2200 1700q-105 0 -195 32.5t-158.5 93.5t-107.5 157.5t-39 216.5t39 216.5t107.5 157.5t158.5 93.5t195 32.5q101 0 194 -42.5t160 -113.5t106.5 -166.5t39.5 -197.5q0 -101 -39.5 -191t-106.5 -153t-159.5 -99.5t-194.5 -36.5zM1950 2100h500q21 0 35.5 14.5t14.5 35.5 v100q0 21 -14.5 35.5t-35.5 14.5h-500q-21 0 -35.5 -14.5t-14.5 -35.5v-100q0 -21 14.5 -35.5t35.5 -14.5zM750 1500q-204 0 -376.5 26.5t-273 73t-100.5 100.5v300q0 54 100.5 100t273 73t376.5 27t376.5 -27t273 -73t100.5 -100v-300q0 -54 -100.5 -100.5t-273 -73 t-376.5 -26.5zM750 1985q134 0 228.5 19t94.5 46t-94.5 45.5t-228.5 18.5t-228.5 -18.5t-94.5 -45.5t94.5 -46t228.5 -19zM750 1000q-204 0 -376.5 26.5t-273 73t-100.5 100.5v300q0 15 12 33q58 -35 146.5 -61.5t170 -39.5t175.5 -21t147 -9.5t99 -1.5t99 1.5t147 9.5 t175.5 21t170 39.5t146.5 61.5q12 -18 12 -33v-300q0 -54 -100.5 -100.5t-273 -73t-376.5 -26.5zM750 500q-204 0 -376.5 26.5t-273 73t-100.5 100.5v300q0 15 12 33q58 -35 146.5 -61.5t170 -39.5t175.5 -21t147 -9.5t99 -1.5t99 1.5t147 9.5t175.5 21t170 39.5t146.5 61.5 q12 -18 12 -33v-300q0 -41 -59.5 -78t-160 -63.5t-239 -42.5t-291.5 -16zM750 0q-204 0 -376.5 27t-273 73t-100.5 100v300q0 15 12 33q49 -29 117.5 -52.5t142.5 -37.5t144.5 -23.5t141.5 -13t113 -5t79 -1.5q46 0 99 1.5t146.5 9.5t175.5 21t170.5 39.5t146.5 61.5 q12 -18 12 -33v-300q0 -54 -100.5 -100t-273 -73t-376.5 -27z" />
<glyph unicode="&#xe144;" d="M2104.5 1709q-100.5 0 -192 39.5t-158 106t-106 158t-39.5 192t39.5 192.5t106 158t158 105.5t192.5 39.5q80 0 155.5 -25t136.5 -71t107 -107t71 -136.5t25 -155.5q0 -101 -39.5 -192.5t-105.5 -158t-158 -106t-192.5 -39.5zM2418 2007q58 91 58 198q0 75 -29.5 144 t-79 118.5t-118.5 79t-144 29.5q-107 0 -198 -58zM2105 1833q107 0 198 58l-512 512q-58 -92 -58 -198q0 -101 50 -186.5t135.5 -135.5t186.5 -50zM750 1500q-204 0 -376.5 27t-273 73t-100.5 100v300q0 41 59.5 78t160 63.5t239 42.5t291.5 16q204 0 376.5 -27t273 -73 t100.5 -100v-300q0 -54 -100.5 -100t-273 -73t-376.5 -27zM750 1985q134 0 228.5 19t94.5 46q0 18 -43.5 32.5t-117.5 23.5t-162 9q-134 0 -228.5 -19t-94.5 -46t94.5 -46t228.5 -19zM750 1000q-204 0 -376.5 27t-273 73t-100.5 100v300q0 15 12 33q58 -35 146.5 -61.5 t170 -39.5t175.5 -21t147 -9.5t99 -1.5q26 0 54.5 0.5t76.5 2.5t96 6t104.5 10.5t111.5 17t108 23.5t101.5 32t85.5 41q12 -18 12 -33v-300q0 -54 -100.5 -100t-273 -73t-376.5 -27zM750 500q-153 0 -291.5 16t-239 42.5t-160 63.5t-59.5 78v300q0 15 12 33 q58 -35 146.5 -61.5t170 -39.5t175.5 -21t147 -9.5t99 -1.5t99 1.5t147 9.5t175.5 21t170 39.5t146.5 61.5q12 -18 12 -33v-300q0 -54 -100.5 -100t-273 -73t-376.5 -27zM750 0q-204 0 -376.5 27t-273 73t-100.5 100v300q0 15 12 33q58 -35 146.5 -61.5t170 -39.5t175.5 -21 t147 -9.5t99 -1.5t99 1.5t147 9.5t175.5 21t170 39.5t146.5 61.5q12 -18 12 -33v-300q0 -54 -100.5 -100t-273 -73t-376.5 -27z" />
<glyph unicode="&#xe145;" d="M0 409v1491q0 41 29.5 70.5t70.5 29.5h133l35 105q13 39 52 67t80 28h500q41 0 80 -28t52 -67l35 -105h933q41 0 70.5 -29.5t29.5 -70.5v-300h-1550q-27 0 -54.5 -15.5t-43.5 -53.5q-12 -25 -124.5 -305.5t-220.5 -548.5zM100 0q-32 0 -50.5 17t-18.5 44q0 15 6 32 l526 1314q10 25 32 46.5t50 34t55 12.5h2200q32 0 51 -17t19 -44q0 -15 -7 -32l-526 -1314q-15 -38 -55.5 -65.5t-81.5 -27.5h-2200z" />
<glyph unicode="&#xe146;" d="M2400 1500q-83 0 -158 21t-137.5 63t-108 101t-71 140t-25.5 175q0 109 39.5 203.5t107 159t159 101t194.5 36.5q102 0 194.5 -39.5t159.5 -106.5t106.5 -159.5t39.5 -194.5t-39.5 -194.5t-106.5 -159.5t-159.5 -106.5t-194.5 -39.5zM2350 1700h100q21 0 35.5 14.5 t14.5 35.5v150h150q21 0 35.5 14.5t14.5 35.5v100q0 21 -14.5 35.5t-35.5 14.5h-150v150q0 21 -14.5 35.5t-35.5 14.5h-100q-21 0 -35.5 -14.5t-14.5 -35.5v-150h-150q-21 0 -35.5 -14.5t-14.5 -35.5v-100q0 -21 14.5 -35.5t35.5 -14.5h150v-150q0 -21 14.5 -35.5 t35.5 -14.5zM100 1700v200q0 41 29.5 70.5t70.5 29.5h133l35 105q13 39 52 67t80 28h500q41 0 80 -28t52 -67l35 -105h533q0 -165 56 -300h-1656zM100 0q-41 0 -70.5 29.5t-29.5 70.5v1400q0 41 29.5 70.5t70.5 29.5h1708q46 -72 109.5 -129t139.5 -94.5t162.5 -57 t180.5 -19.5v-1200q0 -41 -29.5 -70.5t-70.5 -29.5h-2200z" />
<glyph unicode="&#xe147;" d="M2400 1500q-105 0 -195 32.5t-158.5 93.5t-107.5 157.5t-39 216.5t39 216.5t107.5 157.5t158.5 93.5t195 32.5q101 0 194 -42.5t160 -113.5t106.5 -166.5t39.5 -197.5q0 -101 -39.5 -191t-106.5 -153t-159.5 -99.5t-194.5 -36.5zM100 1700v200q0 41 29.5 70.5t70.5 29.5 h133l35 105q13 39 52 67t80 28h500q41 0 80 -28t52 -67l35 -105h533q0 -165 56 -300h-1656zM2150 1900h500q21 0 35.5 14.5t14.5 35.5v100q0 21 -14.5 35.5t-35.5 14.5h-500q-21 0 -35.5 -14.5t-14.5 -35.5v-100q0 -21 14.5 -35.5t35.5 -14.5zM100 0q-41 0 -70.5 29.5 t-29.5 70.5v1400q0 41 29.5 70.5t70.5 29.5h1708q46 -72 109.5 -129t139.5 -94.5t162.5 -57t180.5 -19.5v-1200q0 -41 -29.5 -70.5t-70.5 -29.5h-2200z" />
<glyph unicode="&#xe148;" d="M2017 1600q-4 0 -8 2.5t-6.5 6t-2.5 7.5v566q0 6 5.5 12t11.5 6h83v255q0 56 43 100.5t99 44.5h313q55 0 100 -44.5t45 -100.5v-255h81q6 0 12.5 -6t6.5 -12v-566q0 -6 -6 -11t-13 -5h-764zM2200 2200h400v255q0 25 -10.5 35t-35.5 10h-311q-25 0 -34 -9.5t-9 -35.5v-255 zM100 1700v200q0 41 29.5 70.5t70.5 29.5h133l35 105q13 39 52 67t80 28h500q41 0 80 -28t52 -67l35 -105h633v-300h-1700zM100 0q-41 0 -70.5 29.5t-29.5 70.5v1400q0 41 29.5 70.5t70.5 29.5h1702q6 -84 68 -142t147 -58h383v-1300q0 -41 -29.5 -70.5t-70.5 -29.5h-2200z " />
<glyph unicode="&#xe149;" d="M2150 1600q-21 0 -35.5 14.5t-14.5 35.5v850h550q21 0 35.5 -14.5t14.5 -35.5v-300q0 -21 -13.5 -41t-32.5 -28l-454 -181v-250q0 -21 -14.5 -35.5t-35.5 -14.5zM100 1700v200q0 41 29.5 70.5t70.5 29.5h133l35 105q13 39 52 67t80 28h500q41 0 80 -28t52 -67l35 -105 h733v-300h-1800zM100 0q-41 0 -70.5 29.5t-29.5 70.5v1400q0 41 29.5 70.5t70.5 29.5h1805q18 -86 86.5 -143t158.5 -57t158.5 57t86.5 143h5v-1500q0 -41 -29.5 -70.5t-70.5 -29.5h-2200z" />
<glyph unicode="&#xe150;" d="M2340 1600q-11 0 -25.5 5.5t-14.5 12.5v186l-111 -122q-6 -6 -9.5 -6t-8.5 5l-85 83q-6 6 -6 12t6 12l121 112h-187q-5 0 -10 7.5t-7.5 16t-2.5 14.5v120q0 6 2.5 15.5t7.5 18t10 8.5h187l-122 110q-7 6 -7 9t5 8l83 85q5 6 11 6t12 -6l111 -120v186q0 8 15 15t25 7h120 q10 0 25 -7t15 -15v-187l111 122q7 7 10.5 7t8.5 -5l85 -82q5 -6 5 -11.5t-5 -11.5l-121 -110h186q7 0 13.5 -16t6.5 -26v-120q0 -10 -6.5 -24t-13.5 -14h-186l122 -112q6 -7 6 -10.5t-5 -9.5l-82 -84q-6 -6 -12 -6t-12 6l-111 121v-187q0 -7 -14.5 -12.5t-25.5 -5.5h-120z M100 1700v200q0 41 29.5 70.5t70.5 29.5h133l35 105q13 39 52 67t80 28h500q41 0 80 -28t52 -67l35 -105h633q0 -160 81 -300h-1781zM100 0q-41 0 -70.5 29.5t-29.5 70.5v1400q0 41 29.5 70.5t70.5 29.5h1854q84 -94 200 -147t246 -53v-1300q0 -41 -29.5 -70.5t-70.5 -29.5 h-2200z" />
<glyph unicode="&#xe151;" d="M2227 1638l-289 289l144 145q16 15 37 15t36 -15l217 -217q15 -15 15 -36.5t-15 -36.5zM1230 641l-289 289l910 910l289 -289zM400 0q-108 0 -200.5 53.5t-146 145.5t-53.5 201v1000q0 108 53.5 200.5t146 146t200.5 53.5h1000q53 0 115 -19l-181 -181h-1034 q-27 0 -50 -13.5t-36.5 -36.5t-13.5 -50v-1200q0 -41 29.5 -70.5t70.5 -29.5h1200q41 0 70.5 29.5t29.5 70.5v434l200 200v-534q0 -109 -53.5 -201t-146 -145.5t-200.5 -53.5h-1000zM720 391q-9 -4 -16 -4q-16 0 -16 17q0 7 3 16l163 417l279 -283z" />
<glyph unicode="&#xe152;" d="M1543 630h-1q-11 -8 -20 -8q-20 0 -20 28v418q0 1 -2 9v41h-77q-53 0 -99 -1t-108.5 -4.5t-117.5 -11t-119 -18.5t-119.5 -28.5t-113.5 -40t-107.5 -54t-94.5 -70t-80.5 -88.5t-60.5 -108q2 144 34.5 269.5t84 219t125 172t149 132t164.5 96t163.5 67.5t154 42.5 t128.5 24t94 10.5v43q0 1 0.5 3t0.5 4v372q0 28 19 28q10 0 21 -8l987 -739q16 -12 16 -29.5t-16 -30.5zM400 0q-109 0 -201 53.5t-145.5 145.5t-53.5 201v1000q0 108 53.5 200.5t145.5 146t201 53.5h545q-191 -80 -336 -200h-309q-27 0 -50 -13.5t-36.5 -36.5t-13.5 -50 v-1200q0 -41 29.5 -70.5t70.5 -29.5h1200q41 0 70.5 29.5t29.5 70.5v126l200 151v-177q0 -109 -53.5 -201t-146 -145.5t-200.5 -53.5h-1000z" />
<glyph unicode="&#xe153;" d="M1120 382l-590 590q-14 15 -14 36t14 36l234 233q14 15 35.5 15t36.5 -15l284 -284q15 -15 36 -15t36 15l793 793q15 15 36 15t36 -15l235 -231q15 -15 15 -36t-15 -36l-1100 -1101q-15 -14 -36 -14t-36 14zM500 0q-108 0 -200.5 53.5t-146 145.5t-53.5 201v1000 q0 108 53.5 200.5t146 146t200.5 53.5h1000q69 0 139 -26l-174 -174h-1065q-27 0 -50 -13.5t-36.5 -36.5t-13.5 -50v-1200q0 -41 29.5 -70.5t70.5 -29.5h1200q41 0 70.5 29.5t29.5 70.5v269l200 200v-369q0 -109 -53.5 -201t-146 -145.5t-200.5 -53.5h-1000z" />
<glyph unicode="&#xe154;" d="M500 0q-108 0 -200.5 53.5t-146 145.5t-53.5 201v1000q0 108 53.5 200.5t146 146t200.5 53.5h1000q81 0 155 -32t128 -85.5t85.5 -127.5t31.5 -155v-1000q0 -109 -53.5 -201t-146 -145.5t-200.5 -53.5h-1000zM400 200h1200q41 0 70.5 29.5t29.5 70.5v1200 q0 41 -29.5 70.5t-70.5 29.5h-1200q-27 0 -50 -13.5t-36.5 -36.5t-13.5 -50v-1200q0 -41 29.5 -70.5t70.5 -29.5z" />
<glyph unicode="&#xe155;" d="M400 500q-108 0 -200.5 53.5t-146 145.5t-53.5 201v1000q0 108 53.5 200.5t146 146t200.5 53.5h1000q81 0 155 -32t128 -85.5t85.5 -127.5t31.5 -155h-200v100q0 41 -29.5 70.5t-70.5 29.5h-1200q-41 0 -70.5 -29.5t-29.5 -70.5v-1200q0 -41 29.5 -70.5t70.5 -29.5h100 v-200zM900 0q-108 0 -200.5 53.5t-146 145.5t-53.5 201v1000q0 108 53.5 200.5t146 146t200.5 53.5h1000q81 0 155 -32t128 -85.5t85.5 -127.5t31.5 -155v-1000q0 -109 -53.5 -201t-146 -145.5t-200.5 -53.5h-1000zM800 200h1200q20 0 38.5 8t32 21.5t21.5 32t8 38.5v1200 q0 41 -29.5 70.5t-70.5 29.5h-1200q-27 0 -50 -13.5t-36.5 -36.5t-13.5 -50v-1200q0 -41 29.5 -70.5t70.5 -29.5z" />
</font>
</defs>
</svg>
